Warning! Do NOT Download Without a VPN!
Your IP Address is .   Location is United States
Your Internet Provider and Government can track your download activities! Hide your IP ADDRESS with a VPN!
We strongly recommend using a VPN service to anonymize your torrent downloads. It's FREE!
START YOUR FREE TRIAL NOW!

Рублёвки 2019 S05 WEB-DLRip Files-x

Torrent Details

Рублёвки 2019  s05  WEB-DLRip   Files-x

NAME
Рублёвки 2019 s05 WEB-DLRip Files-x.torrent
CATEGORY
Television
INFOHASH
1057208c3164e2046d571a77067101a48649ac13
SIZE
332 MB in 0 files
ADDED
Uploaded on 05-12-2019 by our crawler pet called "Spidey".
SWARM
40 seeders & 1 peers
RATING
No votes yet.

Please login to vote for this torrent.


Description

Информация о фильме

Оригинальное название: Полицейский с рублёвки-5

Год выпуска: 2019

Жанр: Комедия, криминал, драма

Режиссер: Илья Куликов

В ролях: Александр Петров (II), Сергей Бурунов, Роман Попов, Георгий Клинаев, Ирина Вилкова, Татьяна Бабенкова, Софья Каштанова, Ростислав Гулбис, Сергей Штатнов, Александра Бортич, Александр Дерепко, Светлана Суханова, Мария Безродная, Анна Котова-Дерябина, Велимир Русаков, Константин Быков



О фильме: Вернувшись из отпуска, глава отдела полиции Барвихи Владимир Яковлев получает новое назначение: он становится начальником созданной на Рублёвке Академии российской полиции. Ему предстоит воспитать и обучить новое поколение полицейских, стражей закона будущего. В этом непростом деле ему помогут старые друзья и коллеги: следователь Игорь Мухич, оперативники Алиса, Олег, Саша и Дима. И все было бы прекрасно, если бы не… Гриша Измайлов.









Выпущен: Россия

Студия: АВ Контент

Продолжительность: 1 х ~ 00:25:00

Перевод: Не требуется



Файл

Качество: WEBRip

Видео: XviD, ~ 1600 Кбит/с, 720х304, 25 кадр/с

Аудио: AC3, 2 ch, 192 Кбит/с





Скриншоты

MediaInfoGeneral

Complete name : C:06354 Полицейский с Рублёвки.2019 .s05 WEB-DLRip. Files-x1. Полицейский с Рублёвки.2019 .s05 WEB-DLRip. Files-x.avi

Format : AVI

Format/Info : Audio Video Interleave

File size : 332 MiB

Duration : 25mn 44s

Overall bit rate : 1 802 Kbps

Writing application : VirtualDubMod 1.5.10.3 | www.virtualdub-fr.org || (build 2550/release)

Writing library : VirtualDubMod build 2550/release



Video

ID : 0

Format : MPEG-4 Visual

Format profile : Advanced [email protected]

Format settings, BVOP : 1

Format settings, QPel : No

Format settings, GMC : No warppoints

Format settings, Matrix : Custom

Codec ID : XVID

Codec ID/Hint : XviD

Duration : 25mn 44s

Bit rate : 1 600 Kbps

Width : 720 pixels

Height : 304 pixels

Display aspect ratio : 2.35:1

Frame rate : 25.000 fps

Color space : YUV

Chroma subsampling : 4:2:0

Bit depth : 8 bits

Scan type : Progressive

Compression mode : Lossy

Bits/(Pixel*Frame) : 0.292

Stream size : 294 MiB (89%)

Writing library : XviD 73



Audio

ID : 1

Format : AC-3

Format/Info : Audio Coding 3

Mode extension : CM (complete main)

Codec ID : 2000

Duration : 25mn 44s

Bit rate mode : Constant

Bit rate : 192 Kbps

Channel(s) : 2 channels

Channel positions : Front: L R

Sampling rate : 48.0 KHz

Bit depth : 16 bits

Compression mode : Lossy

Stream size : 35.3 MiB (11%)

Alignment : Split accross interleaves

Interleave, duration : 40 ms (1.00 video frame)

Interleave, preload duration : 500 ms



Раздача ведётся путём добавления новых серийВнимание! Раздача ведётся путём добавления новых серий; при каждом добавлении создаётся новый торрент.

Чтобы начать докачку новой серии, пользователям необходимо сделать следующее:

1. Остановить скачивание;

2. Удалить старый торрент у себя из клиента (старые серии удалять не надо);

3. Скачать новый торрент и запустить его у себя в клиенте вместо старого, при этом указать клиенту путь в старую папку куда и должно происходить скачивание новых серий. Ваш клиент при этом должен произвести хеширование (проверку) старой папки и будет докачивать только те серии, которых у вас ещё нет. Старые серии при этом не удаляются, а продолжают раздаваться! Eсли вы уже удалили старые серии, то предотвратить повторную закачку старых серий можно, отжав галочку в соответствующих местах при запуске нового торрента.











Релиз от:

Discussion

Comments 0

Post Your Comment

Torrent Files (Unavailable)

Please check back later to get a list of all files included in this torrent.

Alternative Torrents for 'DLRip Files'.

TORRENT NAME ADDED SIZE SEEDS PEERS HEALTH
12/2/2019 2.3 GB 59 6
12/8/2019 2.2 GB 52 6
12/5/2019 332 MB 40 1
12/7/2019 1.1 GB 39 5
12/6/2019 1.5 GB 27 2
12/8/2019 2.4 GB 26 3
11/30/2019 2.3 GB 23 2
12/8/2019 4.8 GB 19 9
12/3/2019 816 MB 17 2
12/8/2019 1.1 GB 16 2
Yesterday 2.6 GB 15 9
12/7/2019 2.2 GB 14 5
12/8/2019 1.4 GB 12 2
12/6/2019 1.1 GB 11 3
12/8/2019 1.1 GB 11 1