Warning! Do NOT Download Without a VPN!
Your IP Address is .   Location is United States
Your Internet Provider and Government can track your download activities! Hide your IP ADDRESS with a VPN!
We strongly recommend using a VPN service to anonymize your torrent downloads. It's FREE!
START YOUR FREE TRIAL NOW!

Sabotage 2014 X264 720p Esub BluRay Dual Audio English Hindi GOPISAHI

Torrent Details

Sabotage 2014 x264 720p Esub BluRay Dual Audio English Hindi GOPISAHI

NAME
Sabotage 2014 x264 720p Esub BluRay Dual Audio English Hindi GOPISAHI.torrent
CATEGORY
Movies
INFOHASH
f4f6615949e4b35b6703e7452046b4713c9a547c
SIZE
890 MB in 1 file
ADDED
Uploaded on 05-12-2019 by our crawler pet called "Spidey".
SWARM
87 seeders & 143 peers
RATING
No votes yet.

Please login to vote for this torrent.


Description

https://www.gopisahi.in/



Sabotage 2014 x264 720p Esub BluRay Dual Audio English Hindi GOPISAHI


Format : Matroska

Format version : Version 4

File size : 890 MiB

Duration : 1 h 49 min

Overall bit rate : 1 135 kb/s

Movie name : Sabotage 2014 GOPISAHI


Video

Format : AVC

Format/Info : Advanced Video Codec

Format profile : [email protected]

Format settings : CABAC / 4 Ref Frames

Format settings, CABAC : Yes

Format settings, Reference fra : 4 frames

Codec ID : V_MPEG4/ISO/AVC

Duration : 1 h 49 min

Bit rate : 939 kb/s

Width : 1 280 pixels

Height : 696 pixels

Display aspect ratio : 1.85:1

Frame rate mode : Constant

Frame rate : 23.976 (24000/1001) FPS

Original frame rate : 23.976 (23976/1000) FPS

Color space : YUV

Chroma subsampling : 4:2:0

Bit depth : 8 bits

Scan type : Progressive

Bits/(Pixel*Frame) : 0.044

Stream size : 737 MiB (83%)

Title : GOPISAHI

Writing library : x264 core 142 r2409 d6b4e63


Audio #1

Format : AAC LC

Duration : 1 h 49 min

Bit rate : 96.0 kb/s

Channel(s) : 2 channels

Channel layout : L R

Sampling rate : 48.0 kHz

Frame rate : 46.875 FPS (1024 SPF)

Compression mode : Lossy

Stream size : 75.8 MiB (9%)

Title : GOPISAHI

Language : Hindi


Audio #2

Format : AAC LC

Duration : 1 h 49 min

Bit rate : 96.0 kb/s

Channel(s) : 2 channels

Channel layout : L R

Sampling rate : 48.0 kHz

Frame rate : 46.875 FPS (1024 SPF)

Compression mode : Lossy

Stream size : 75.6 MiB (8%)

Title : GOPISAHI

Language : English


Text

Language : English





Discussion

Comments 0

Post Your Comment

Files in this torrent

FILENAMESIZE
Sabotage 2014 x264 720p Esub BluRay Dual Audio English Hindi GOPISAHI.mkv890.4 MB

Alternative Torrents for 'Sabotage Esub BluRay Dual Audio English Hindi GOPISAHI'.

TORRENT NAME ADDED SIZE SEEDS PEERS HEALTH
12/5/2019 890 MB 87 143