Warning! Do NOT Download Without a VPN!
Your IP Address is .   Location is United States
Your Internet Provider and Government can track your download activities! Hide your IP ADDRESS with a VPN!
We strongly recommend using a VPN service to anonymize your torrent downloads. It's FREE!
START YOUR FREE TRIAL NOW!

Bala (2019) 1080p HS WEB-DL H264 AAC - ESUBS ~ Ranvijay

Torrent Details

Bala (2019) 1080p HS WEB-DL H264 AAC - ESUBS ~ Ranvijay

NAME
Bala (2019) 1080p HS WEB-DL H264 AAC - ESUBS ~ Ranvijay.torrent
CATEGORY
Movies
INFOHASH
5310fce04f96bbfce1b9b401fa68e9b8ac4a183e
SIZE
1.5 GB in 1 file
ADDED
Uploaded on 16-01-2020 by our crawler pet called "Spidey".
SWARM
39 seeders & 6 peers
RATING
No votes yet.

Please login to vote for this torrent.


Description

Bala (2019) 1080p HS WEB-DL H264 AAC - ESUBS ~ Ranvijay - DusIcTv

General
Format                                   : Matroska
Format version                           : Version 4 / Version 2
File size                                : 1.50 GiB
Duration                                 : 2 h 13 min
Overall bit rate                         : 1 612 kb/s
Movie name                               : Bala (2019) 1080p HS WEB-DL H264 AAC - ESUBS ~ Ranvijay
Encoded date                             : UTC 2020-01-16 19:44:16
Writing application                      : mkvmerge v20.0.0 ('I Am The Sun') 32-bit
Writing library                          : libebml v1.3.5 + libmatroska v1.4.8

Video
ID                                       : 1
Format                                   : AVC
Format/Info                              : Advanced Video Codec
Format profile                           : [email protected]
Format settings                          : CABAC / 4 Ref Frames
Format settings, CABAC                   : Yes
Format settings, RefFrames               : 4 frames
Format settings, GOP                     : M=5, N=48
Codec ID                                 : V_MPEG4/ISO/AVC
Duration                                 : 2 h 13 min
Bit rate                                 : 1 545 kb/s
Width                                    : 1 920 pixels
Height                                   : 1 080 pixels
Display aspect ratio                     : 16:9
Frame rate mode                          : Constant
Frame rate                               : 24.000 FPS
Color space                              : YUV
Chroma subsampling                       : 4:2:0
Bit depth                                : 8 bits
Scan type                                : Progressive
Bits/(Pixel*Frame)                       : 0.031
Stream size                              : 1.44 GiB (96%)
Title                                    : ~Ranvijay~
Writing library                          : x264 core 155 r2917 0a84d98
Default                                  : Yes
Forced                                   : No
Color range                              : Limited
Color primaries                          : BT.709
Transfer characteristics                 : BT.709
Matrix coefficients                      : BT.709

Audio
ID                                       : 2
Format                                   : AAC
Format/Info                              : Advanced Audio Codec
Format profile                           : LC
Codec ID                                 : A_AAC-2
Duration                                 : 2 h 13 min
Bit rate                                 : 63.9 kb/s
Channel(s)                               : 2 channels
Channel positions                        : Front: L R
Sampling rate                            : 48.0 kHz
Frame rate                               : 46.875 FPS (1024 SPF)
Compression mode                         : Lossy
Stream size                              : 60.8 MiB (4%)
Title                                    : ~Ranvijay~
Language                                 : Hindi
Default                                  : Yes
Forced                                   : No

Text #1
ID                                       : 3
Format                                   : UTF-8
Codec ID                                 : S_TEXT/UTF8
Codec ID/Info                            : UTF-8 Plain Text
Duration                                 : 2 h 10 min
Bit rate                                 : 153 b/s
Count of elements                        : 2289
Stream size                              : 147 KiB (0%)
Title                                    : ~Ranvijay~
Language                                 : English
Default                                  : Yes
Forced                                   : Yes

Text #2
ID                                       : 4
Format                                   : UTF-8
Codec ID                                 : S_TEXT/UTF8
Codec ID/Info                            : UTF-8 Plain Text
Duration                                 : 2 h 10 min
Bit rate                                 : 69 b/s
Count of elements                        : 2289
Stream size                              : 66.9 KiB (0%)
Title                                    : ~Ranvijay~
Language                                 : English
Default                                  : No
Forced                                   : No

Discussion

Comments 0

Post Your Comment

Files in this torrent

FILENAMESIZE
Bala (2019) 1080p HS WEB-DL H264 AAC - ESUBS ~ Ranvijay.mkv1.5 GB

Alternative Torrents for 'Bala HS AAC ESUBS Ranvijay'.

TORRENT NAME ADDED SIZE SEEDS PEERS HEALTH
1/16/2020 1.5 GB 39 6