Fast And Furious Presents Hobbs And Shaw 2019 BluRay Remux 1080p Kinozal-Атлас31

Torrent Details

Fast and Furious Presents Hobbs and Shaw 2019 BluRay Remux 1080p Kinozal-Атлас31
Fast and Furious Presents Hobbs and Shaw 2019 BluRay Remux 1080p Kinozal-Атлас31

NAME
Fast and Furious Presents Hobbs and Shaw 2019 BluRay Remux 1080p Kinozal-Атлас31.torrent
CATEGORY
Movies
INFOHASH
472031d7e570a7fd8827dc5954278cee1ed0e7ed
SIZE
37.1 GB in 0 files
ADDED
Uploaded on 16-02-2020 by our crawler pet called "Spidey".
SWARM
0 seeders & 0 peers
RATING
No votes yet.

Please login to vote for this torrent.


Description

Страна: Великобритания, США

Жанр: Боевик, приключения

Год выпуска: 2019

Продолжительность: 02:16:42



Перевод 1: Профессиональный (дублированный) | (Лицензия BD 4K EUR)

Перевод 2: Авторский одноголосый [Дмитрий Есарев]

Cубтитры: Русские (2xForced), Русские (BD 4K EUR), Украинские (Forced), Английские (Full, SDH)

Оригинальная аудиодорожка: Английский



Режиссёр: Дэвид Литч / David Leitch



В ролях: Дуэйн Джонсон, Джейсон Стэйтем, Идрис Эльба, Ванесса Кирби, Хелен Миррен, Эйса Гонсалес, Эдди Марсан, Элиана Суа, Клифф Кёртис, Лори Пелениз Туисано



Описание: Люк Хоббс — американский элитный спецагент, он любит удобную спортивную одежду, большие пикапы и здоровое питание. Декард Шоу — британский пижон, бывший сотрудник разведки, предпочитает дорогие костюмы, спортивные авто и пабы. Эти двое терпеть друг друга не могут. Но если кто-то угрожает их семьям, они готовы пойти на всё. Даже на работу в команде.







Релиз от:



Автор: Атлас31



Тип релиза: BDRemux 1080p

Контейнер: MKV



Видео: MPEG-4 AVC, 28784 Кбит/с, 1920x1080, 23.976 кадр/с

Аудио#1: Russian: 48 kHz, AC3, 3/2 (L,C,R,l,r) + LFE ch, ~640 kbps avg |Дубляж, BD 4K EUR|

Аудио#2: Russian: 48 kHz/24-bit, DTS-HD MA 7.1, ~5387 kbps avg |Одноголосый закадровый, Дмитрий Есарев|

Аудио#3: Ukrainian: 48 kHz, AC3, 2/0 (L,C) ch, ~192 kbps avg |Дубляж, студія LeDoyen|

Аудио#4: English: 48 kHz/24-bit, DTS-HD MA 7.1, ~3995 kbps avg



MediaInfo

General

Unique ID : 175971993600746105662566385749530904314 (0x8462F922A59AA13AB59F8F48F4DA06FA)

Complete name : F:ФильмыFast.and.Furious.Presents.Hobbs.and.Shaw.2019.BluRay.Remux.1080p.Kinozal-Атлас31.mkv

Format : Matroska

Format version : Version 2

File size : 37.1 GiB

Duration : 2h 16mn

Overall bit rate mode : Variable

Overall bit rate : 38.9 Mbps

Encoded date : UTC 2020-02-15 20:52:08

Writing application : mkvmerge v7.8.0 ('River Man') 32bit built on Apr 3 2015 12:11:22

Writing library : libebml v1.3.1 + libmatroska v1.4.2



Video

ID : 1

Format : AVC

Format/Info : Advanced Video Codec

Format profile : [email protected]

Format settings, CABAC : Yes

Format settings, ReFrames : 4 frames

Codec ID : V_MPEG4/ISO/AVC

Duration : 2h 16mn

Bit rate mode : Variable

Maximum bit rate : 37.3 Mbps

Width : 1 920 pixels

Height : 1 080 pixels

Display aspect ratio : 16:9

Frame rate mode : Constant

Frame rate : 23.976 fps

Color space : YUV

Chroma subsampling : 4:2:0

Bit depth : 8 bits

Scan type : Progressive

Title : Release for Кinozal by Атлас31

Language : English

Default : Yes

Forced : No



Audio #1

ID : 2

Format : AC-3

Format/Info : Audio Coding 3

Mode extension : CM (complete main)

Format settings, Endianness : Big

Codec ID : A_AC3

Duration : 2h 16mn

Bit rate mode : Constant

Bit rate : 640 Kbps

Channel(s) : 6 channels

Channel positions : Front: L C R, Side: L R, LFE

Sampling rate : 48.0 KHz

Bit depth : 16 bits

Compression mode : Lossy

Stream size : 626 MiB (2%)

Title : Dub BD 4K EUR

Language : Russian

Default : Yes

Forced : No



Audio #2

ID : 3

Format : DTS

Format/Info : Digital Theater Systems

Format profile : MA / Core

Mode : 16

Format settings, Endianness : Big

Codec ID : A_DTS

Duration : 2h 16mn

Bit rate mode : Variable

Bit rate : Unknown / 1 509 Kbps

Channel(s) : 8 channels / 6 channels

Channel positions : Front: L C R, Side: L R, Back: L R, LFE / Front: L C R, Side: L R, LFE

Sampling rate : 48.0 KHz

Bit depth : 24 bits

Compression mode : Lossless / Lossy

Title : AVO (Есарев)

Language : Russian

Default : No

Forced : No



Audio #3

ID : 4

Format : AC-3

Format/Info : Audio Coding 3

Mode extension : CM (complete main)

Format settings, Endianness : Big

Codec ID : A_AC3

Duration : 2h 16mn

Bit rate mode : Constant

Bit rate : 192 Kbps

Channel(s) : 2 channels

Channel positions : Front: L R

Sampling rate : 48.0 KHz

Bit depth : 16 bits

Compression mode : Lossy

Stream size : 188 MiB (0%)

Title : Dub студія LeDoyen

Language : Ukrainian

Default : No

Forced : No



Audio #4

ID : 5

Format : DTS

Format/Info : Digital Theater Systems

Format profile : MA / Core

Mode : 16

Format settings, Endianness : Big

Codec ID : A_DTS

Duration : 2h 16mn

Bit rate mode : Variable

Bit rate : Unknown / 1 509 Kbps

Channel(s) : 8 channels / 6 channels

Channel positions : Front: L C R, Side: L R, Back: L R, LFE / Front: L C R, Side: L R, LFE

Sampling rate : 48.0 KHz

Bit depth : 24 bits

Compression mode : Lossless / Lossy

Title : Original

Language : English

Default : No

Forced : No



Text #1

ID : 6

Format : UTF-8

Codec ID : S_TEXT/UTF8

Codec ID/Info : UTF-8 Plain Text

Title : Russian forced BD 4K EUR

Language : Russian

Default : Yes

Forced : Yes



Text #2

ID : 7

Format : UTF-8

Codec ID : S_TEXT/UTF8

Codec ID/Info : UTF-8 Plain Text

Title : Russian forced iTunes

Language : Russian

Default : No

Forced : No



Text #3

ID : 8

Format : UTF-8

Codec ID : S_TEXT/UTF8

Codec ID/Info : UTF-8 Plain Text

Title : Russian full BD 4K EUR

Language : Russian

Default : No

Forced : No



Text #4

ID : 9

Format : UTF-8

Codec ID : S_TEXT/UTF8

Codec ID/Info : UTF-8 Plain Text

Title : Ukrainian forced

Language : Ukrainian

Default : No

Forced : No



Text #5

ID : 10

Format : UTF-8

Codec ID : S_TEXT/UTF8

Codec ID/Info : UTF-8 Plain Text

Title : English full

Language : English

Default : No

Forced : No



Text #6

ID : 11

Format : UTF-8

Codec ID : S_TEXT/UTF8

Codec ID/Info : UTF-8 Plain Text

Title : English SDH

Language : English

Default : No

Forced : No



Menu

00:00:00.000 : en:Chapter 01

00:04:58.131 : en:Chapter 02

00:13:43.489 : en:Chapter 03

00:19:21.452 : en:Chapter 04

00:26:45.979 : en:Chapter 05

00:35:41.514 : en:Chapter 06

00:40:13.244 : en:Chapter 07

00:46:22.029 : en:Chapter 08

00:51:34.216 : en:Chapter 09

00:57:51.802 : en:Chapter 10

01:01:53.251 : en:Chapter 11

01:08:45.163 : en:Chapter 12

01:14:22.833 : en:Chapter 13

01:19:48.075 : en:Chapter 14

01:24:59.261 : en:Chapter 15

01:32:58.198 : en:Chapter 16

01:38:48.923 : en:Chapter 17

01:46:32.970 : en:Chapter 18

01:53:29.594 : en:Chapter 19

02:01:14.809 : en:Chapter 20

Скриншоты





Discussion

Comments 0

Post Your Comment

Torrent Files (Unavailable)

Please check back later to get a list of all files included in this torrent.

Alternative Torrents for 'Fast and Furious Presents Hobbs and Shaw BluRay Remux KinozalАтлас'.

TORRENT NAMEADDEDSIZESEEDSPEERSHEALTH
6/27/2020833 MB1647379
6/27/20201.7 GB1439251
7/7/20204 GB90954
Today1.7 GB894621
3/10/20182.4 GB72084
Today1.2 GB682909
Yesterday898 MB578531
7/2/2020797 MB567115
7/7/20204 GB56143
6/25/2020898 MB54784
7/3/20202.3 GB52472
Today4 GB522113
7/2/20201.1 GB45456
7/4/2020851 MB39773
7/4/20201.7 GB384109