Jumanji The Next Level 2019 MULTi UHD BluRay 2160p HDR DTS-X 7 1 HEVC-DDR

Torrent Details

Jumanji The Next Level 2019 MULTi UHD BluRay 2160p HDR DTS-X 7 1 HEVC-DDR

NAME
Jumanji The Next Level 2019 MULTi UHD BluRay 2160p HDR DTS-X 7 1 HEVC-DDR.torrent
CATEGORY
Movies
INFOHASH
488033ad422f5daa1d41abfc5f2667f0c94ae822
SIZE
20.4 GB in 2 files
ADDED
Uploaded on 06-03-2020 by our crawler pet called "Spidey".
SWARM
0 seeders & 3 peers
RATING
No votes yet.

Please login to vote for this torrent.


Description









Format                                   : Matroska

Format version                           : Version 4

File size                                : 20.4 GiB

Duration                                 : 2 h 3 min

Overall bit rate mode                    : Variable

Overall bit rate                         : 23.7 Mb/s



Video

Format                                   : HEVC

Format/Info                              : High Efficiency Video Coding

Commercial name                          : HDR10

Format profile                           : Main [email protected]@High

Codec ID                                 : V_MPEGH/ISO/HEVC

Duration                                 : 2 h 3 min

Bit rate                                 : 15.8 Mb/s

Width                                    : 3 840 pixels

Height                                   : 1 608 pixels

Display aspect ratio                     : 2.40:1

Frame rate mode                          : Constant

Frame rate                               : 23.976 (24000/1001) FPS

Color space                              : YUV

Chroma subsampling                       : 4:2:0

Bit depth                                : 10 bits

Bits/(Pixel*Frame)                       : 0.107

Stream size                              : 13.6 GiB (67%)

Language                                 : English

Default                                  : Yes

Forced                                   : No

Color range                              : Limited

Color primaries                          : BT.2020

Transfer characteristics                 : PQ

Matrix coefficients                      : BT.2020 non-constant

Mastering display color primaries        : Display P3

Mastering display luminance              : min: 0.0050 cd/m2, max: 4000 cd/m2

Maximum Content Light Level              : 6248 cd/m2

Maximum Frame-Average Light Level        : 902 cd/m2



Audio #1

Format                                   : DTS XLL

Format/Info                              : Digital Theater Systems

Commercial name                          : DTS-HD Master Audio

it rate                                 : 6 291 kb/s

Channel(s)                               : 8 channels

Bit depth                                : 24 bits

Compression mode                         : Lossless

Stream size                              : 5.41 GiB (49%)

Title                                    : DTS:X 7.1

Language                                 : English



Audio #2

Format                                   : DTS

Format/Info                              : Digital Theater Systems

Bit rate mode                            : Constant

Bit rate                                 : 1 509 kb/s

Channel(s)                               : 6 channels

Language                                 : French



Subs:

En Fr SP

[email protected]

Discussion

Comments 0

Post Your Comment

Files in this torrent

FILENAMESIZE
0A DDR Release !!!.txt287 B
Jumanji The Next Level 2019.MULTi.UHD.BluRay.2160p.HDR.DTS-X.7.1.HEVC-DDR.mkv20.4 GB

Alternative Torrents for 'Jumanji Next Level MULTi UHD BluRay HDR DTS HEVCDDR'.

There are no alternative torrents found.