Saving Private Ryan (1998) 1080p UHD BluRay X264 Exclusive By~Hammer~

Torrent Details

Saving Private Ryan (1998) 1080p UHD BluRay x264   Exclusive By~Hammer~
Saving Private Ryan (1998) 1080p UHD BluRay x264   Exclusive By~Hammer~

NAME
Saving Private Ryan (1998) 1080p UHD BluRay x264 Exclusive By~Hammer~.torrent
CATEGORY
Movies
INFOHASH
4d611cf05939a49d964a4d761b3dfb34e9967d44
SIZE
7.5 GB in 1 file
ADDED
Uploaded on 01-07-2020 by our crawler pet called "Spidey".
SWARM
13 seeders & 10 peers
RATING
No votes yet.

Please login to vote for this torrent.


Description

Saving Private Ryan (1998) 1080p UHD BluRay x264 {Dual Audio} {Hindi-Eng DD 5.1 640 kbps} Exclusive By~Hammer~





Stay Home Stay Safe From Coronavirus

General
Format : Matroska
Format version : Version 4 / Version 2
File size : 7.50 GiB
Duration : 2 h 49 min
Overall bit rate : 6 308 kb/s
Movie name : Saving Private Ryan (1998) 1080p UHD BluRay x264 {Dual Audio} {Hindi-Eng DD 5.1 640 kbps} MSub By~Hammer~
Bit rate : 5 000 kb/s
Width : 1 920 pixels
Height : 1 080 pixels
Display aspect ratio : 16:9
Frame rate mode : Constant
Frame rate : 23.976 (24000/1001) FPS
Title : ~EncodeR~Hammer~
Language : English
Default : Yes
Forced : No

Audio #1
Format : AC-3
Format/Info : Audio Coding 3
Codec ID : A_AC3
Duration : 2 h 49 min
Bit rate mode : Constant
Bit rate : 640 kb/s
Channel(s) : 6 channels
Channel positions : Front: L C R, Side: L R, LFE
Sampling rate : 48.0 kHz
Frame rate : 31.250 FPS (1536 SPF)
Bit depth : 16 bits
Compression mode : Lossy
Stream size : 779 MiB (10%)
Title : Hindi Org DD 5.1 640 kbps By~Hammer~
Language : Hindi
Default : Yes
Forced : Yes

Audio #2
Format : AC-3
Format/Info : Audio Coding 3
Codec ID : A_AC3
Duration : 2 h 49 min
Bit rate mode : Constant
Bit rate : 640 kb/s
Channel(s) : 6 channels
Channel positions : Front: L C R, Side: L R, LFE
Sampling rate : 48.0 kHz
Frame rate : 31.250 FPS (1536 SPF)
Bit depth : 16 bits
Compression mode : Lossy
Stream size : 776 MiB (10%)
Title : English BD 5.1 640 kbps By~Hammer~
Language : English
Default : No
Forced : No

Text #1
Format : PGS
Muxing mode : zlib
Codec ID : S_HDMV/PGS
Codec ID/Info : Picture based subtitle format used on BDs/HD-DVDs
Duration : 2 h 38 min
Bit rate : 12.0 kb/s
Count of elements : 3380
Stream size : 13.6 MiB (0%)
Title : Hindi PGS
Language : Hindi
Default : Yes
Forced : No

Text #2
Format : PGS
Muxing mode : zlib
Codec ID : S_HDMV/PGS
Codec ID/Info : Picture based subtitle format used on BDs/HD-DVDs
Duration : 2 h 37 min
Bit rate : 21.8 kb/s
Count of elements : 3378
Stream size : 24.6 MiB (0%)
Title : English PGS
Language : English
Default : No
Forced : No

Text #3
Format : PGS
Muxing mode : zlib
Codec ID : S_HDMV/PGS
Codec ID/Info : Picture based subtitle format used on BDs/HD-DVDs
Duration : 2 h 37 min
Bit rate : 23.3 kb/s
Count of elements : 3620
Stream size : 26.3 MiB (0%)
Title : English PGS
Language : English
Default : No
Forced : No

















Discussion

Comments 0

Post Your Comment

Files in this torrent

FILENAMESIZE
Saving Private Ryan (1998) 1080p UHD BluRay x264 {Dual Audio} {Hindi-Eng DD 5.1 640 kbps} MSub By~Hammer~.mkv7.5 GB

Alternative Torrents for 'Saving Private Ryan UHD BluRay Exclusive ByHammer'.

TORRENT NAMEADDEDSIZESEEDSPEERSHEALTH
6/27/2020833 MB1407393
6/18/20201.7 GB1324265
6/27/20201.7 GB1249300
6/18/2020836 MB1190143
6/25/2020898 MB677125
3/10/20182.4 GB67089
Yesterday798 MB517239
Yesterday859 MB476291
6/28/20201.4 GB455206
6/23/20202.4 GB417115
6/18/20201.7 GB41175
6/18/20201.1 GB39337
6/28/20206.1 GB345129
Yesterday797 MB332319
6/25/20201.8 GB32432