Photographing Fairies (1997) WEB-DL 1080p -BLUEBIRD

Torrent Details

Photographing Fairies (1997) WEB-DL 1080p -BLUEBIRD
Photographing Fairies (1997) WEB-DL 1080p -BLUEBIRD

NAME
Photographing Fairies (1997) WEB-DL 1080p -BLUEBIRD.torrent
CATEGORY
Movies
INFOHASH
345c9672debc946dcfcf9acd92585cc66edecb87
SIZE
4.7 GB in 1 file
ADDED
Uploaded on 01-07-2020 by our crawler pet called "Spidey".
SWARM
98 seeders & 28 peers
RATING
No votes yet.

Please login to vote for this torrent.


Description

Информация о фильме

Название: С феями шутки плохи

Оригинальное название: Photographing Fairies

Год выхода: 1997

Жанр: фэнтези, драма, детектив

Режиссер: Ник Уиллинг

В ролях: Тоби Стивенс, Эмили Вуф, Бен Кингсли, Фрэнсис Барбер, Филип Дэвис, Ханна Боулд, Мириам Грант, Рэйчел Шелли, Эдвард Хардуик, Клайв Меррисон



О фильме: Фотограф Чарльз Касл тяжело переживает утрату своей красавицы-невесты, погибшей во время снежной бури. Утратив вкус к жизни, вне себя от горя, он отправляется на войну, и, работая фоторепортером, не раз встречается лицом к лицу со смертью.



После войны Чарльз встречает таинственную незнакомку, которая показывает ему фотоснимки, на которых изображены… настоящие феи. Непреодолимое желание докопаться до истины приводит его в захолустную деревушку Беркинвэлл. В этом мирном, на первый взгляд, местечке, Чарльз постепенно оказывается втянутым в мистическую феерию, которая сулит райское блаженство, но приносит окружающим только смерть.



Сможет ли Чарльз разгадать головоломку, удастся ли ему найти грань между реальностью и фантазией, между жизнью и смертью?







Страна: Великобритания

Студия: BBC, Arts Council of England

Продолжительность: 01:36:42

Перевод: Профессиональный (многоголосый, закадровый), Профессиональный (двухголосый, закадровый)



Релиз:



Файл

Качество: WEBRip 1080p

Формат: Matroska

Видео: 1920x1080 at 25.000 fps, x264, ~5100 kbps avg

Аудио#1: Russian: 48 kHz, AАC, 2/0 (L,R) ch, ~256 kbps avg |Двухголосый закадровый, НТВ+|

Аудио#2: Russian: 48 kHz, AC3, 3/2 (L,C,R,l,r) + LFE ch, ~384 kbps avg |Многоголосый закадровый, Настроение Video (DVD9)|

Аудио#3: Russian: 48 kHz, AC3, 2/0 (L,R) ch, ~224 kbps avg |Двухголосый закадровый, А.Рахленко и Л.Германова (VHS)|

Аудио#4: English: 48 kHz, AC3, 3/2 (L,C,R,l,r) + LFE ch, ~384 kbps avg

Cубтитры: Russian, English



Знаете ли вы, что...Исполнитель роли Артура Конана Дойля британский актёр Эдвард Хардуик был известен тем, что в многочисленных фильмах-экранизациях Конан Дойля он играл доктора Ватсона.

Прежде фильм выпускался под названием «Фотофеи» (дистрибьютор «Союз-Видео», с 2004 года под новым названием — был выпущен дистрибьютором «Премьер Мультимедиа».MediaInfoОбщее

Уникальный идентификатор : 214085541119113051712697843436908821598 (0xA10F601C30F653FA889209ECA6C9BC5E)

Полное имя : Photographing Fairies (1997) WEB-DL 1080p -BLUEBIRD.mkv

Формат : Matroska

Версия формата : Version 4

Размер файла : 4,73 Гбайт

Продолжительность : 1 ч. 46 м.

Общий поток : 6353 Кбит/сек

Дата кодирования : UTC 2017-07-04 05:56:36

Программа кодирования : mkvmerge v12.0.0 ('Trust / Lust') 64bit

Библиотека кодирования : libebml v1.3.4 + libmatroska v1.4.5



Видео

Идентификатор : 1

Формат : AVC

Формат/Информация : Advanced Video Codec

Профиль формата : [email protected]

Настройки формата : CABAC / 4 Ref Frames

Параметр CABAC формата : Да

Параметр RefFrames формата : 4 кадра

Идентификатор кодека : V_MPEG4/ISO/AVC

Продолжительность : 1 ч. 46 м.

Номинальный битрейт : 5120 Кбит/сек

Ширина : 1920 пикселей

Высота : 1080 пикселей

Соотношение сторон : 16:9

Режим частоты кадров : Постоянный

Частота кадров : 25,000 кадров/сек

Цветовое пространство : YUV

Субдискретизация насыщенности : 4:2:0

Битовая глубина : 8 бит

Тип развёртки : Прогрессивная

Бит/(Пиксели*Кадры) : 0.099

Библиотека кодирования : x264 core 142

Настройки программы : cabac=1 / ref=3 / deblock=1:0:0 / analyse=0x3:0x113 / me=hex / subme=7 / psy=1 / psy_rd=1.00:0.00 / mixed_ref=1 / me_range=16 / chroma_me=1 / trellis=1 / 8x8dct=1 / cqm=0 / deadzone=21,11 / fast_pskip=1 / chroma_qp_offset=-2 / threads=48 / lookahead_threads=8 / sliced_threads=0 / nr=0 / decimate=1 / interlaced=0 / bluray_compat=0 / constrained_intra=0 / bframes=6 / b_pyramid=2 / b_adapt=1 / b_bias=0 / direct=1 / weightb=1 / open_gop=0 / weightp=2 / keyint=50 / keyint_min=26 / scenecut=0 / intra_refresh=0 / rc_lookahead=40 / rc=2pass / mbtree=1 / bitrate=5120 / ratetol=1.0 / qcomp=0.60 / qpmin=0 / qpmax=69 / qpstep=4 / cplxblur=20.0 / qblur=0.5 / vbv_maxrate=7680 / vbv_bufsize=20480 / nal_hrd=none / filler=0 / ip_ratio=1.40 / aq=1:1.00

Язык : Russian

Default : Да

Forced : Нет



Аудио #1

Идентификатор : 2

Формат : AAC LC

Формат/Информация : Advanced Audio Codec Low Complexity

Идентификатор кодека : A_AAC-2

Продолжительность : 1 ч. 46 м.

Каналы : 2 канала

ChannelLayout : L R

Частота : 48,0 КГц

Частота кадров : 46,875 кадров/сек (1024 SPF)

Метод сжатия : С потерями

Заголовок : НТВ+

Язык : Russian

Default : Да

Forced : Нет



Аудио #2

Идентификатор : 3

Формат : AC-3

Формат/Информация : Audio Coding 3

Коммерческое название : Dolby Digital

Идентификатор кодека : A_AC3

Продолжительность : 1 ч. 46 м.

Вид битрейта : Постоянный

Битрейт : 384 Кбит/сек

Каналы : 6 каналов

ChannelLayout : L R C LFE Ls Rs

Частота : 48,0 КГц

Частота кадров : 31,250 кадров/сек (1536 SPF)

Метод сжатия : С потерями

Размер потока : 293 Мбайт (6%)

Заголовок : Настроение Video

Язык : Russian

ServiceKind/String : Complete Main

Default : Нет

Forced : Нет



Аудио #3

Идентификатор : 4

Формат : AC-3

Формат/Информация : Audio Coding 3

Коммерческое название : Dolby Digital

Идентификатор кодека : A_AC3

Продолжительность : 1 ч. 46 м.

Вид битрейта : Постоянный

Битрейт : 224 Кбит/сек

Каналы : 2 канала

ChannelLayout : L R

Частота : 48,0 КГц

Частота кадров : 31,250 кадров/сек (1536 SPF)

Метод сжатия : С потерями

Размер потока : 171 Мбайт (4%)

Заголовок : VHS А. Рахленко, Л. Германова

Язык : Russian

ServiceKind/String : Complete Main

Default : Нет

Forced : Нет



Аудио #4

Идентификатор : 5

Формат : AC-3

Формат/Информация : Audio Coding 3

Коммерческое название : Dolby Digital

Идентификатор кодека : A_AC3

Продолжительность : 1 ч. 46 м.

Вид битрейта : Постоянный

Битрейт : 384 Кбит/сек

Каналы : 6 каналов

ChannelLayout : L R C LFE Ls Rs

Частота : 48,0 КГц

Частота кадров : 31,250 кадров/сек (1536 SPF)

Метод сжатия : С потерями

Размер потока : 293 Мбайт (6%)

Язык : English

ServiceKind/String : Complete Main

Default : Нет

Forced : Нет



Текст #1

Идентификатор : 6

Формат : UTF-8

Идентификатор кодека : S_TEXT/UTF8

Идентификатор кодека/Информация : UTF-8 Plain Text

Язык : Russian

Default : Да

Forced : Нет



Текст #2

Идентификатор : 7

Формат : UTF-8

Идентификатор кодека : S_TEXT/UTF8

Идентификатор кодека/Информация : UTF-8 Plain Text

Язык : English

Default : Нет

Forced : НетСкриншоты

Discussion

Comments 0

Post Your Comment

Files in this torrent

FILENAMESIZE
Photographing Fairies (1997) WEB-DL 1080p -BLUEBIRD.mkv4.7 GB

Alternative Torrents for 'Photographing Fairies BLUEBIRD'.

TORRENT NAMEADDEDSIZESEEDSPEERSHEALTH
7/1/20204.7 GB9828