The Postcard Killings (2020) BDRip 1080p-HEVC 10bit

Torrent Details

The Postcard Killings (2020) BDRip 1080p-HEVC 10bit
The Postcard Killings (2020) BDRip 1080p-HEVC 10bit

NAME
The Postcard Killings (2020) BDRip 1080p-HEVC 10bit.torrent
CATEGORY
Movies
INFOHASH
fd464162dd5ab673729eec7113a61b03182785eb
SIZE
6.3 GB in 1 file
ADDED
Uploaded on 01-07-2020 by our crawler pet called "Spidey".
SWARM
23 seeders & 19 peers
RATING
No votes yet.

Please login to vote for this torrent.


Description

Год выхода: 2020

Страна / Студия: Великобритания, США / Good Films Collective, Hindsight Media, K. JAM Media

Жанр: детектив, криминал, драма

Продолжительность: 01:44:09

Перевод: Дублированный (iTunes)



Режиссер: Данис Танович

В ролях: Джеффри Дин Морган, Фамке Янссен, Каш Джамбо, Йоахим Круль, Стивен Макинтош, Наоми Баттрик, Руаири О’Коннор, Эва Рёзе, Лукас Лугрэн, Дэнис О’Хэр



Описание: Лондон, Мадрид, Стокгольм… В Европе орудует жестокий и изощрённый маньяк-убийца. Перемещаясь из города в город, он дразнит полицию, посылая журналистам подсказки в виде открыток из музеев. Одной из его жертв становится дочь опытного и харизматичного детектива из Нью-Йорка, Джейкоба Кэнона. Теперь его цель — найти убийцу и отомстить.



Качество: BDRip 1080p

Видео: HEVC/H.265, 1920x800, ~7613 Kbps

Аудио 1: AC3, 6 ch, 384 Kbps - Русский, дублированный

Аудио 2: AC3, 6 ch, 640 Kbps - Английский

Субтитры: Русские, английские







Релиз от: HANNIBAL



Mediainfo Общее

Уникальный идентификатор : 123448481226186978050087219981803810089 (0x5CDF500A5F3A480E574D48DDBB836D29)

Полное имя : R:The Postcard Killings (2020) BDRip 1080p-HEVC 10bit.mkv

Формат : Matroska

Версия формата : Version 4 / Version 2

Размер файла : 6,28 Гбайт

Продолжительность : 1 ч. 44 м.

Общий поток : 8640 Кбит/сек

Название фильма : The Postcard Killings.2020.BDRemux.grab777 & ExKinoRay

Дата кодирования : UTC 2020-06-22 17:49:34

Программа кодирования : mkvmerge v47.0.0 ('Black Flag') 64-bit

Библиотека кодирования : libebml v1.3.10 + libmatroska v1.5.2

Обложка : Yes

Attachments : cover.jpg



Видео

Идентификатор : 1

Формат : HEVC

Формат/Информация : High Efficiency Video Coding

Профиль формата : Main [email protected]@High

Идентификатор кодека : V_MPEGH/ISO/HEVC

Продолжительность : 1 ч. 44 м.

Битрейт : 7613 Кбит/сек

Ширина : 1920 пикселей

Высота : 800 пикселей

Соотношение сторон : 2,40:1

Режим частоты кадров : Постоянный

Частота кадров : 23,976 (23976/1000) кадра/сек

Частота кадров в оригинале : 23,976 (24000/1001) кадра/сек

Цветовое пространство : YUV

Субдискретизация насыщенности : 4:2:0

Битовая глубина : 10 бит

Бит/(Пиксели*Кадры) : 0.207

Размер потока : 5,54 Гбайт (88%)

Библиотека кодирования : x265 3.3+4-g85d84b2af:[Windows][GCC 10.1.0][64 bit] 10bit

Настройки программы : cpuid=1111039 / frame-threads=3 / numa-pools=12 / wpp / no-pmode / no-pme / no-psnr / no-ssim / log-level=2 / input-csp=1 / input-res=1920x800 / interlace=0 / total-frames=149809 / level-idc=41 / high-tier=1 / uhd-bd=0 / ref=5 / no-allow-non-conformance / no-repeat-headers / annexb / no-aud / no-hrd / info / hash=0 / no-temporal-layers / open-gop / min-keyint=23 / keyint=240 / gop-lookahead=0 / bframes=15 / b-adapt=2 / b-pyramid / bframe-bias=0 / rc-lookahead=60 / lookahead-slices=4 / scenecut=40 / hist-scenecut=0 / radl=0 / no-splice / no-intra-refresh / ctu=32 / min-cu-size=8 / rect / amp / max-tu-size=32 / tu-inter-depth=4 / tu-intra-depth=4 / limit-tu=0 / rdoq-level=2 / dynamic-rd=0.00 / no-ssim-rd / signhide / no-tskip / nr-intra=0 / nr-inter=0 / no-constrained-intra / no-strong-intra-smoothing / max-merge=5 / limit-refs=0 / no-limit-modes / me=3 / subme=7 / merange=57 / temporal-mvp / no-frame-dup / no-hme / weightp / weightb / no-analyze-src-pics / deblock=-3:-3 / no-sao / no-sao-non-deblock / rd=6 / selective-sao=0 / no-early-skip / no-rskip / no-fast-intra / no-tskip-fast / no-cu-lossless / b-intra / no-splitrd-skip / rdpenalty=0 / psy-rd=2.00 / psy-rdoq=1.00 / no-rd-refine / no-lossless / cbqpoffs=0 / crqpoffs=0 / rc=crf / crf=21.0 / qcomp=0.70 / qpstep=4 / stats-write=0 / stats-read=0 / vbv-maxrate=50000 / vbv-bufsize=50000 / vbv-init=0.9 / crf-max=0.0 / crf-min=0.0 / ipratio=1.40 / pbratio=1.30 / aq-mode=2 / aq-strength=1.00 / no-cutree / zone-count=0 / no-strict-cbr / qg-size=32 / no-rc-grain / qpmax=69 / qpmin=0 / no-const-vbv / sar=1 / overscan=0 / videoformat=5 / range=0 / colorprim=1 / transfer=1 / colormatrix=1 / chromaloc=0 / display-window=0 / cll=0,0 / min-luma=0 / max-luma=1023 / log2-max-poc-lsb=8 / vui-timing-info / vui-hrd-info / slices=1 / no-opt-qp-pps / no-opt-ref-list-length-pps / no-multi-pass-opt-rps / scenecut-bias=0.05 / hist-threshold=0.01 / no-opt-cu-delta-qp / no-aq-motion / no-hdr10 / no-hdr10-opt / no-dhdr10-opt / no-idr-recovery-sei / analysis-reuse-level=0 / analysis-save-reuse-level=0 / analysis-load-reuse-level=0 / scale-factor=0 / refine-intra=0 / refine-inter=0 / refine-mv=1 / refine-ctu-distortion=0 / no-limit-sao / ctu-info=0 / no-lowpass-dct / refine-analysis-type=0 / copy-pic=1 / max-ausize-factor=1.0 / no-dynamic-refine / no-single-sei / no-hevc-aq / no-svt / no-field / qp-adaptation-range=1.00 / no-scenecut-aware-qpconformance-window-offsets / right=0 / bottom=0

Default : Да

Forced : Нет

Цветовой диапазон : Limited

Основные цвета : BT.709

Характеристики трансфера : BT.709

Коэффициенты матрицы : BT.709



Аудио #1

Идентификатор : 2

Формат : AC-3

Формат/Информация : Audio Coding 3

Идентификатор кодека : A_AC3

Продолжительность : 1 ч. 44 м.

Вид битрейта : Постоянный

Битрейт : 384 Кбит/сек

Каналы : 6 каналов

Расположение каналов : Front: L C R, Side: L R, LFE

Частота : 48,0 КГц

Частота кадров : 31,250 кадров/сек (1536 SPF)

Битовая глубина : 16 бит

Метод сжатия : С потерями

Размер потока : 286 Мбайт (4%)

Заголовок : Dub (iTunes)

Язык : Russian

ServiceKind/Strin : Complete Main

Default : Да

Forced : Да



Аудио #2

Идентификатор : 3

Формат : AC-3

Формат/Информация : Audio Coding 3

Идентификатор кодека : A_AC3

Продолжительность : 1 ч. 44 м.

Вид битрейта : Постоянный

Битрейт : 640 Кбит/сек

Каналы : 6 каналов

Расположение каналов : Front: L C R, Side: L R, LFE

Частота : 48,0 КГц

Частота кадров : 31,250 кадров/сек (1536 SPF)

Битовая глубина : 16 бит

Метод сжатия : С потерями

Размер потока : 477 Мбайт (7%)

Язык : English

ServiceKind/Strin : Complete Main

Default : Нет

Forced : Нет



Текст #1

Идентификатор : 4

Формат : UTF-8

Идентификатор кодека : S_TEXT/UTF8

Идентификатор кодека/Информация : UTF-8 Plain Text

Продолжительность : 1 ч. 36 м.

Битрейт : 102 бит/сек

ElementCount : 1320

Размер потока : 72,3 Кбайт (0%)

Заголовок : Full

Язык : Russian

Default : Нет

Forced : Нет



Текст #2

Идентификатор : 5

Формат : UTF-8

Идентификатор кодека : S_TEXT/UTF8

Идентификатор кодека/Информация : UTF-8 Plain Text

Продолжительность : 1 ч. 35 м.

Битрейт : 54 бит/сек

ElementCount : 1175

Размер потока : 37,8 Кбайт (0%)

Заголовок : SRT

Язык : English

Default : Нет

Forced : Нет

Discussion

Comments 0

Post Your Comment

Files in this torrent

FILENAMESIZE
The Postcard Killings (2020) BDRip 1080p-HEVC 10bit.mkv6.3 GB

Alternative Torrents for 'Postcard Killings HEVC bit'.

TORRENT NAMEADDEDSIZESEEDSPEERSHEALTH
6/25/2020898 MB677125
6/19/2020802 MB51949
6/20/2020845 MB48684
6/28/2020893 MB365121
6/25/20201.8 GB32432
6/20/20201.7 GB31355
Yesterday242 MB300128
6/30/2020908 MB284215
Yesterday241 MB26279
6/25/20201.6 GB26166
6/28/20201.6 GB25853
Today274 MB23390
6/29/2020211 MB23219
6/20/2020555 MB19319
6/24/2020699 MB19120