Cheerleader Camp 2010 1080p BluRay X264 DTS-FGT

Torrent Details

Cheerleader Camp 2010 1080p BluRay x264 DTS<span style=color:#fc9c6d>-FGT</span>Cheerleader Camp 2010 1080p BluRay x264 DTS<span style=color:#fc9c6d>-FGT</span>

NAME
Cheerleader Camp 2010 1080p BluRay x264 DTS-FGT.torrent
CATEGORY
Movies
INFOHASH
69bf0a26dc469240e22f46ae07e4883cb046444f
SIZE
6.3 GB in 2 files
ADDED
Uploaded on 01-07-2020 by our crawler pet called "Spidey".
SWARM
0 seeders & 0 peers
RATING
No votes yet.

Please login to vote for this torrent.


Description

◎译  名 第一啦啦队长营◎片  名 #1 Cheerleader Camp◎年  代 2010◎产  地 美国◎类  别 喜剧◎语  言 英语◎上映日期 2010◎IMDb评分 3.7/10 from 2940 users◎IMDb链接 https://www.imdb.com/title/tt1637976◎豆瓣评分 4.2/10 from 168 users◎豆瓣链接 https://movie.douban.com/subject/5153255/◎片  长 95 分钟◎导  演 Mark Quod◎编  剧 Naomi L. Selfman◎主  演 Charlene Tilton      Seth Cassell      Jay Gillespie      Erica Duke◎标  签 青春 | 美国 | 想看完整的 | 情色 | 美女 | 运动 | 美国电影 | 2010◎简  介   暂无相关剧情介绍Video ID : 1 Format : AVC Format/Info : Advanced Video Codec Format profile : [email protected] Format settings : CABAC / 4 Ref Frames Format settings, CABAC : Yes Format settings, Reference frames : 4 frames Codec ID : V_MPEG4/ISO/AVC Duration : 1 h 35 min Bit rate : 7 755 kb/s Width : 1 920 pixels Height : 1 080 pixels Display aspect ratio : 16:9 Frame rate mode : Constant Frame rate : 23.976 (24000/1001/189150) FPS Color space : YUV Chroma subsampling : 4:2:0 Bit depth : 8 bits Scan type : Progressive Bits/(Pixel*Frame) : 0.156 Stream size : 5.17 GiB (82%) Writing library : x264 core 138 r2358 9e941d1 Encoding settings : cabac=1 / ref=4 / deblock=1:-1:-1 / analyse=0x3:0x133 / me=umh / subme=7 / psy=1 / psy_rd=1.00:0.15 / mixed_ref=1 / me_range=16 / chroma_me=1 / trellis=1 / 8x8dct=1 / cqm=0 / deadzone=21,11 / fast_pskip=0 / chroma_qp_offset=-3 / threads=9 / lookahead_threads=1 / sliced_threads=0 / nr=0 / decimate=1 / interlaced=0 / bluray_compat=0 / constrained_intra=0 / bframes=3 / b_pyramid=2 / b_adapt=1 / b_bias=0 / direct=1 / weightb=1 / open_gop=0 / weightp=2 / keyint=250 / keyint_min=23 / scenecut=40 / intra_refresh=0 / rc_lookahead=40 / rc=crf / mbtree=1 / crf=20.0 / qcomp=0.60 / qpmin=0 / qpmax=69 / qpstep=4 / ip_ratio=1.40 / aq=1:1.00 Language : English Default : Yes Forced : No Audio ID : 2 Format : DTS Format/Info : Digital Theater Systems Codec ID : A_DTS Duration : 1 h 35 min Bit rate mode : Constant Bit rate : 1 509 kb/s Channel(s) : 6 channels Channel layout : C L R Ls Rs LFE Sampling rate : 48.0 kHz Frame rate : 93.750 FPS (512 SPF) Bit depth : 16 bits Compression mode : Lossy Stream size : 1.01 GiB (16%) Language : English Default : Yes Forced : No

Discussion

Comments 0

Post Your Comment

Files in this torrent

FILENAMESIZE
Cheerleader.Camp.2010.1080p.BluRay.x264.DTS-FGT.mkv6.3 GB
RARBG.txt31 B

Alternative Torrents for 'Cheerleader Camp BluRay DTS'.

TORRENT NAMEADDEDSIZESEEDSPEERSHEALTH
7/1/20206.3 GB00