Underneath 1995 1080p BluRay X264 DTS-FGT

Torrent Details


Underneath 1995 1080p BluRay x264 DTS<span style=color:#fc9c6d>-FGT</span>

NAME
Underneath 1995 1080p BluRay x264 DTS-FGT.torrent
CATEGORY
Movies
INFOHASH
fab8b414fb1e274343de7f23e7fb3fd38dd36a77
SIZE
7.1 GB in 2 files
ADDED
Uploaded on 01-07-2020 by our crawler pet called "Spidey".
SWARM
0 seeders & 0 peers
RATING
No votes yet.

Please login to vote for this torrent.


Description

◎译  名 危险狂爱 / 非常奇杀案◎片  名 Underneath◎年  代 1995◎产  地 美国◎类  别 剧情 / 惊悚 / 犯罪◎语  言 英语◎上映日期 1995-04-28◎IMDb评分 6.1/10 from 3085 users◎IMDb链接 https://www.imdb.com/title/tt0114788◎豆瓣评分 6.1/10 from 485 users◎豆瓣链接 https://movie.douban.com/subject/1293242/◎片  长 99 分钟◎导  演 史蒂文·索德伯格 Steven Soderbergh◎编  剧 丹尼尔·富克斯 Daniel Fuchs / Don Tracy / 史蒂文·索德伯格 Steven Soderbergh◎主  演 彼得·盖勒 Peter Gallagher      艾丽森·艾略特 Alison Elliott      威廉·菲德内尔 William Fichtner      亚当·崔斯 Adam Trese      乔·德·巴克 Jo De Backer◎标  签 美国 | 犯罪 | 1990s | 史蒂文·索德伯格 | StevenSoderbergh | 1995 | 爱情 | 美国电影◎简  介   由史蒂文·索德伯格导演的这部犯罪剧情片讲述浪子米高返回老家,重遇刚开始新生活的母亲,因爱成妒的弟弟及一个他曾离开的女人丽书。为了夺回丽书,米高孤注一掷。可是,爱慕变成痴恋,而一场尔虞我诈的游戏随即开始,引来无尽的杀机。Video ID : 1 Format : AVC Format/Info : Advanced Video Codec Format profile : [email protected] Format settings : CABAC / 5 Ref Frames Format settings, CABAC : Yes Format settings, Reference frames : 5 frames Codec ID : V_MPEG4/ISO/AVC Duration : 1 h 39 min Bit rate : 8 782 kb/s Width : 1 920 pixels Height : 816 pixels Display aspect ratio : 2.35:1 Frame rate mode : Constant Frame rate : 23.976 (24000/1001/189150) FPS Color space : YUV Chroma subsampling : 4:2:0 Bit depth : 8 bits Scan type : Progressive Bits/(Pixel*Frame) : 0.234 Stream size : 5.94 GiB (83%) Writing library : x264 core 148 r2638 7599210 Encoding settings : cabac=1 / ref=5 / deblock=1:-3:-3 / analyse=0x3:0x133 / me=umh / subme=11 / psy=1 / psy_rd=1.00:0.00 / mixed_ref=1 / me_range=32 / chroma_me=1 / trellis=2 / 8x8dct=1 / cqm=0 / deadzone=21,11 / fast_pskip=1 / chroma_qp_offset=-2 / threads=6 / lookahead_threads=1 / sliced_threads=0 / nr=0 / decimate=1 / interlaced=0 / bluray_compat=0 / constrained_intra=0 / bframes=8 / b_pyramid=2 / b_adapt=2 / b_bias=0 / direct=3 / weightb=1 / open_gop=0 / weightp=2 / keyint=240 / keyint_min=23 / scenecut=40 / intra_refresh=0 / rc_lookahead=60 / rc=2pass / mbtree=1 / bitrate=8782 / ratetol=1.0 / qcomp=0.60 / qpmin=0 / qpmax=69 / qpstep=4 / cplxblur=20.0 / qblur=0.5 / vbv_maxrate=50000 / vbv_bufsize=62500 / nal_hrd=none / filler=0 / ip_ratio=1.40 / aq=1:1.00 Language : English Default : Yes Forced : No Audio ID : 2 Format : DTS Format/Info : Digital Theater Systems Codec ID : A_DTS Duration : 1 h 39 min Bit rate mode : Constant Bit rate : 1 509 kb/s Channel(s) : 6 channels Channel layout : C L R Ls Rs LFE Sampling rate : 48.0 kHz Frame rate : 93.750 FPS (512 SPF) Bit depth : 16 bits Compression mode : Lossy Stream size : 1.04 GiB (15%) Language : English Default : Yes Forced : No Text #1 ID : 3 Format : UTF-8 Codec ID : S_TEXT/UTF8 Codec ID/Info : UTF-8 Plain Text Language : English Default : No Forced : No Text #2 ID : 4 Format : UTF-8 Codec ID : S_TEXT/UTF8 Codec ID/Info : UTF-8 Plain Text Language : French Default : No Forced : No Menu 00:00:00.000 : en:Chapter 01 00:02:30.170 : en:Chapter 02 00:07:29.380 : en:Chapter 03 00:19:19.020 : en:Chapter 04 00:26:38.280 : en:Chapter 05 00:34:58.090 : en:Chapter 06 00:45:22.630 : en:Chapter 07 00:59:03.560 : en:Chapter 08 01:07:36.720 : en:Chapter 09 01:14:59.860 : en:Chapter 10 01:22:21.370 : en:Chapter 11 01:34:52.120 : en:Chapter 12

Discussion

Comments 0

Post Your Comment

Files in this torrent

FILENAMESIZE
Underneath.1995.1080p.BluRay.x264.DTS-FGT.mkv7.1 GB
Underneath.1995.1080p.BluRay.x264.DTS-FGT.nfo5.3 KB

Alternative Torrents for 'Underneath BluRay DTS'.

TORRENT NAMEADDEDSIZESEEDSPEERSHEALTH
7/1/20207.1 GB00
11/13/20199.5 GB00