Jumanji The Next Level (2019) BDRip 2160p HEVC HDR

Torrent Details


Jumanji The Next Level (2019) BDRip 2160p HEVC HDR

NAME
Jumanji The Next Level (2019) BDRip 2160p HEVC HDR.torrent
CATEGORY
Movies
INFOHASH
24188f92bf6c944ae4c52c645478d057570cefb1
SIZE
11.4 GB in 1 file
ADDED
Uploaded on 22-11-2020 by our crawler pet called "Spidey".
SWARM
0 seeders & 0 peers
RATING
This torrent has a bad rating! This torrent has BAD rating with 0 votes.

Please login to vote for this torrent.


Description

Информация о фильме

Название: Джуманджи: Новый уровень

Оригинальное название: Jumanji: The Next Level

Год выхода: 2019

Жанр: фэнтези, боевик, комедия, приключения





Режиссер: Джейк Кэздан





В ролях: Дуэйн Джонсон, Джек Блэк, Кевин Харт, Карен Гиллан, Ник Джонас, Аквафина, Риз Дэрби, Дэнни ДеВито, Дэнни Гловер, Морган Тернер





О фильме:

Пытаясь спасти Спенсера, снова попавшего в игру, туда же отправляются и остальные. К их удивлению, правила Джуманджи изменились, и более того - на этот раз в игру затянуло дедулю Спенсера и его престарелого друга Майло. Чтобы выполнить задания и вернуться домой, друзьям предстоит отправиться в путешествие по ранее неизведанным и таинственным уголкам Джуманджи – от засушливой пустыни до заснеженных гор.











Страна: США

Продолжительность: 02:03:10

Перевод: Профессиональный (полное дублирование) | Лицензия





Файл

Кодек: H.265

Качество: BDRip-HEVC 2160p

Видео: MPEG-H HEVC, HDR, 3840x1608 (2.40:1), 23.976 fps, 11.3 Mb/s, 10 Bit

Аудио 1: AC3, 48.0 kHz, 6 ch, 640 kb/s | [DUB] RUS

Аудио 2: AC3, 48.0 kHz, 6 ch, 640 kb/s | [DUB] UKR

Аудио 3: AC3, 48.0 kHz, 6 ch, 640 kb/s | Оригинал | ENG

Субтитры: Русские (forced, full), украинские (forced, full), английские (full)



Сэмпл



MIGeneral

Unique ID : 250998413524558567861033381360637066065 (0xBCD4893B3B7A80918EBC2FCACC983B51)

Complete name : Jumanji.The.Next.Level.(2019).BDRip.2160p.HEVC.HDR.mkv

Format : Matroska

Format version : Version 4

File size : 11.4 GiB

Duration : 2 h 3 min

Overall bit rate : 13.2 Mb/s

Encoded date : UTC 2020-11-22 17:43:31

Writing application : mkvmerge v8.3.0 ('Over the Horizon') 64bit

Writing library : libebml v1.3.1 + libmatroska v1.4.2



Video

ID : 1

Format : HEVC

Format/Info : High Efficiency Video Coding

Commercial name : HDR10

Format profile : Main [email protected]@High

Codec ID : V_MPEGH/ISO/HEVC

Duration : 2 h 3 min

Bit rate : 11.3 Mb/s

Width : 3 840 pixels

Height : 1 608 pixels

Display aspect ratio : 2.40:1

Frame rate mode : Constant

Frame rate : 23.976 (24000/1001) FPS

Color space : YUV

Chroma subsampling : 4:2:0 (Type 2)

Bit depth : 10 bits

Bits/(Pixel*Frame) : 0.076

Stream size : 9.74 GiB (85%)

Writing library : x265 3.0_Au+10-74a8672ea4f7:[Windows][GCC 8.2.1][64 bit] 10bit

Encoding settings : cpuid=1111039 / frame-threads=6 / numa-pools=40 / wpp / no-pmode / no-pme / no-psnr / no-ssim / log-level=2 / input-csp=1 / input-res=3840x1608 / interlace=0 / total-frames=0 / level-idc=51 / high-tier=1 / uhd-bd=0 / ref=3 / no-allow-non-conformance / repeat-headers / annexb / aud / hrd / info / hash=0 / no-temporal-layers / no-open-gop / min-keyint=1 / keyint=24 / gop-lookahead=0 / bframes=4 / b-adapt=2 / b-pyramid / bframe-bias=0 / rc-lookahead=25 / lookahead-slices=4 / scenecut=40 / radl=0 / no-splice / no-intra-refresh / ctu=64 / min-cu-size=8 / no-rect / no-amp / max-tu-size=32 / tu-inter-depth=1 / tu-intra-depth=1 / limit-tu=0 / rdoq-level=0 / dynamic-rd=0.00 / no-ssim-rd / signhide / no-tskip / nr-intra=0 / nr-inter=0 / no-constrained-intra / strong-intra-smoothing / max-merge=2 / limit-refs=3 / no-limit-modes / me=1 / subme=2 / merange=57 / temporal-mvp / weightp / no-weightb / no-analyze-src-pics / deblock=0:0 / no-sao / no-sao-non-deblock / rd=3 / no-early-skip / rskip / no-fast-intra / no-tskip-fast / no-cu-lossless / no-b-intra / no-splitrd-skip / rdpenalty=0 / psy-rd=2.00 / psy-rdoq=0.00 / no-rd-refine / no-lossless / cbqpoffs=0 / crqpoffs=0 / rc=crf / crf=14.0 / qcomp=0.60 / qpstep=4 / stats-write=0 / stats-read=0 / vbv-maxrate=160000 / vbv-bufsize=160000 / vbv-init=0.9 / crf-max=0.0 / crf-min=0.0 / ipratio=1.40 / pbratio=1.30 / aq-mode=1 / aq-strength=1.00 / cutree / zone-count=0 / no-strict-cbr / qg-size=32 / no-rc-grain / qpmax=69 / qpmin=0 / no-const-vbv / sar=1 / overscan=0 / videoformat=5 / range=0 / colorprim=9 / transfer=16 / colormatrix=9 / chromaloc=1 / chromaloc-top=2 / chromaloc-bottom=2 / display-window=0 / master-display=G(13250,34500)B(7500,3000)R(34000,16000)WP(15635,16450)L(40000000,50) / max-cll=6248,902 / min-luma=0 / max-luma=1023 / log2-max-poc-lsb=8 / vui-timing-info / vui-hrd-info / slices=1 / opt-qp-pps / opt-ref-list-length-pps / no-multi-pass-opt-rps / scenecut-bias=0.05 / no-opt-cu-delta-qp / no-aq-motion / hdr / hdr-opt / no-dhdr10-opt / no-idr-recovery-sei / analysis-reuse-level=5 / scale-factor=0 / refine-intra=0 / refine-inter=0 / refine-mv=0 / refine-ctu-distortion=0 / no-limit-sao / ctu-info=0 / no-lowpass-dct / refine-analysis-type=16 / copy-pic=1 / max-ausize-factor=1.0 / no-dynamic-refine / no-single-sei / no-hevc-aq / no-svt / qp-adaptation-range=1.00

Default : Yes

Forced : No

Color range : Limited

Color primaries : BT.2020

Transfer characteristics : PQ

Matrix coefficients : BT.2020 non-constant

Mastering display color primaries : Display P3

Mastering display luminance : min: 0.0050 cd/m2, max: 4000 cd/m2

Maximum Content Light Level : 6248 cd/m2

Maximum Frame-Average Light Level : 902 cd/m2



Audio #1

ID : 2

Format : AC-3

Format/Info : Audio Coding 3

Commercial name : Dolby Digital

Codec ID : A_AC3

Duration : 2 h 3 min

Bit rate mode : Constant

Bit rate : 640 kb/s

Channel(s) : 6 channels

Channel layout : L R C LFE Ls Rs

Sampling rate : 48.0 kHz

Frame rate : 31.250 FPS (1536 SPF)

Bit depth : 16 bits

Compression mode : Lossy

Stream size : 564 MiB (5%)

Title : DUB

Language : Russian

Service kind : Complete Main

Default : Yes

Forced : No



Audio #2

ID : 3

Format : AC-3

Format/Info : Audio Coding 3

Commercial name : Dolby Digital

Codec ID : A_AC3

Duration : 2 h 3 min

Bit rate mode : Constant

Bit rate : 640 kb/s

Channel(s) : 6 channels

Channel layout : L R C LFE Ls Rs

Sampling rate : 48.0 kHz

Frame rate : 31.250 FPS (1536 SPF)

Bit depth : 16 bits

Compression mode : Lossy

Stream size : 564 MiB (5%)

Title : DUB

Language : Ukrainian

Service kind : Complete Main

Default : No

Forced : No



Audio #3

ID : 4

Format : AC-3

Format/Info : Audio Coding 3

Commercial name : Dolby Digital

Codec ID : A_AC3

Duration : 2 h 3 min

Bit rate mode : Constant

Bit rate : 640 kb/s

Channel(s) : 6 channels

Channel layout : L R C LFE Ls Rs

Sampling rate : 48.0 kHz

Frame rate : 31.250 FPS (1536 SPF)

Bit depth : 16 bits

Compression mode : Lossy

Stream size : 564 MiB (5%)

Language : English

Service kind : Complete Main

Default : No

Forced : No



Text #1

ID : 5

Format : UTF-8

Codec ID : S_TEXT/UTF8

Codec ID/Info : UTF-8 Plain Text

Duration : 1 h 40 min

Bit rate : 0 b/s

Count of elements : 8

Stream size : 325 Bytes (0%)

Title : Forced

Language : Russian

Default : Yes

Forced : No



Text #2

ID : 6

Format : UTF-8

Codec ID : S_TEXT/UTF8

Codec ID/Info : UTF-8 Plain Text

Duration : 2 h 2 min

Bit rate : 79 b/s

Count of elements : 1604

Stream size : 71.3 KiB (0%)

Title : Full

Language : Russian

Default : No

Forced : No



Text #3

ID : 7

Format : UTF-8

Codec ID : S_TEXT/UTF8

Codec ID/Info : UTF-8 Plain Text

Duration : 2 h 2 min

Bit rate : 0 b/s

Count of elements : 9

Stream size : 486 Bytes (0%)

Title : Forced

Language : Ukrainian

Default : No

Forced : No



Text #4

ID : 8

Format : UTF-8

Codec ID : S_TEXT/UTF8

Codec ID/Info : UTF-8 Plain Text

Duration : 2 h 1 min

Bit rate : 75 b/s

Count of elements : 1571

Stream size : 67.2 KiB (0%)

Title : Full

Language : Ukrainian

Default : No

Forced : No



Text #5

ID : 9

Format : UTF-8

Codec ID : S_TEXT/UTF8

Codec ID/Info : UTF-8 Plain Text

Duration : 1 h 52 min

Bit rate : 57 b/s

Count of elements : 1557

Stream size : 47.6 KiB (0%)

Title : Full

Language : English

Default : No

Forced : No



Menu

00:00:00.000 : en:Chapter 01

00:09:18.349 : en:Chapter 02

00:17:40.476 : en:Chapter 03

00:23:10.681 : en:Chapter 04

00:31:12.287 : en:Chapter 05

00:38:19.130 : en:Chapter 06

00:42:39.265 : en:Chapter 07

00:48:52.972 : en:Chapter 08

00:57:11.428 : en:Chapter 09

01:06:03.001 : en:Chapter 10

01:13:16.142 : en:Chapter 11

01:21:29.093 : en:Chapter 12

01:28:33.725 : en:Chapter 13

01:32:39.512 : en:Chapter 14

01:37:05.403 : en:Chapter 15

01:45:00.586 : en:Chapter 16Скриншоты

Discussion

Comments 0

Post Your Comment

Files in this torrent

FILENAMESIZE
Jumanji.The.Next.Level.(2019).BDRip.2160p.HEVC.HDR.mkv11.4 GB

Alternative Torrents for 'Jumanji Next Level HEVC HDR'.

TORRENT NAMEADDEDSIZESEEDSPEERSHEALTH
11/22/202011.4 GB00
5/1/20203.4 GB00
5/1/202014.1 GB00
3/27/20203.1 GB00
3/11/20206.1 GB00
3/6/202020.4 GB00