Soul 2020 WEB-DL 1080p MVO

Torrent Details


Soul 2020 WEB-DL 1080p MVO

NAME
Soul 2020 WEB-DL 1080p MVO.torrent
CATEGORY
Anime
INFOHASH
b31a4cbebfc0a850b0f265a1d4736387beeb11da
SIZE
5.8 GB in 1 file
ADDED
Uploaded on 29-12-2020 by our crawler pet called "Spidey".
SWARM
0 seeders & 0 peers
RATING
This torrent has a bad rating! This torrent has BAD rating with 0 votes.

Please login to vote for this torrent.


Description

Информация о фильме

Название: Душа

Оригинальное название: Soul

Год выхода: 2020

Жанр: мультфильм, фэнтези, комедия, приключения, семейный, музыка





Режиссер: Пит Доктер, Кемп Пауэрс





В ролях: Джейми Фокс, Тина Фей, Филисия Рашад, Давид Диггс, Анджела Бассетт, Грэм Нортон, Рэйчел Хаус, Алиси Брага, Ричард Айоади, Доннел Роулингс





О фильме:

Школьный учитель музыки Джо Гарднер случайно попадает в мир, где зарождаются человеческие увлечения, мечты и интересы, и там он знакомится с молодой душой по имени 22.











Страна: США

Продолжительность: 01:40:31

Перевод: Любительский (многоголосый) | VPStudio





Файл

Кодек: x.264

Качество: WEB-DL 1080p

Видео: AVC, 1920x1080 (16:9), 23.976 fps, 6 700 kb/s

Аудио 1: AC3, 48.0 kHz, 2 ch, 192 kb/s | RUS - MVO (VPStudio)

Аудио 2: AC3, 48.0 kHz, 6 ch, 640 kb/s | RUS - MVO (VPStudio) | Ред. dance111

Аудио 3: E-AC3 with Dolby Atmos, 48.0 kHz, 6 ch, 768 kb/s | ENG

Субтитры: Русские (Full[Focs]), украинские (Full), английские (SDH)



Рекламы нет | Сэмпл | Трейлер



ПримечаниеРусская аудио дорожка №2 получена наложением голосов на центр оригинальной дорожки.(Редакция dance111)MIGeneral

Unique ID : 195607356729661508050690100350222536517 (0x93289B47F66001A7810C6D018E6B0F45)

Complete name : Soul.2020.WEB-DL.1080p.MVO.mkv

Format : Matroska

Format version : Version 4

File size : 5.83 GiB

Duration : 1 h 40 min

Overall bit rate mode : Variable

Overall bit rate : 8 303 kb/s

Encoded date : UTC 2020-12-29 17:10:55

Writing application : mkvmerge v8.3.0 ('Over the Horizon') 64bit

Writing library : libebml v1.3.1 + libmatroska v1.4.2



Video

ID : 1

Format : AVC

Format/Info : Advanced Video Codec

Format profile : [email protected]

Format settings : CABAC / 4 Ref Frames

Format settings, CABAC : Yes

Format settings, ReFrames : 4 frames

Codec ID : V_MPEG4/ISO/AVC

Duration : 1 h 40 min

Bit rate mode : Variable

Bit rate : 6 700 kb/s

Maximum bit rate : 12.7 Mb/s

Width : 1 920 pixels

Height : 1 080 pixels

Display aspect ratio : 16:9

Frame rate mode : Constant

Frame rate : 23.976 (24000/1001) FPS

Color space : YUV

Chroma subsampling : 4:2:0

Bit depth : 8 bits

Scan type : Progressive

Bits/(Pixel*Frame) : 0.135

Stream size : 4.70 GiB (81%)

Default : Yes

Forced : No

Color range : Limited

Color primaries : BT.709

Transfer characteristics : BT.709

Matrix coefficients : BT.709



Audio #1

ID : 2

Format : AC-3

Format/Info : Audio Coding 3

Commercial name : Dolby Digital

Codec ID : A_AC3

Duration : 1 h 40 min

Bit rate mode : Constant

Bit rate : 192 kb/s

Channel(s) : 2 channels

Channel layout : L R

Sampling rate : 48.0 kHz

Frame rate : 31.250 FPS (1536 SPF)

Bit depth : 16 bits

Compression mode : Lossy

Stream size : 138 MiB (2%)

Title : MVO (VPStudio)

Language : Russian

Service kind : Complete Main

Default : Yes

Forced : No



Audio #2

ID : 3

Format : AC-3

Format/Info : Audio Coding 3

Commercial name : Dolby Digital

Codec ID : A_AC3

Duration : 1 h 40 min

Bit rate mode : Constant

Bit rate : 640 kb/s

Channel(s) : 6 channels

Channel layout : L R C LFE Ls Rs

Sampling rate : 48.0 kHz

Frame rate : 31.250 FPS (1536 SPF)

Bit depth : 16 bits

Compression mode : Lossy

Stream size : 460 MiB (8%)

Title : MVO (VPStudio) [ред. dance111]

Language : Russian

Service kind : Complete Main

Default : No

Forced : No



Audio #3

ID : 4

Format : E-AC-3 JOC

Format/Info : Enhanced AC-3 with Joint Object Coding

Commercial name : Dolby Digital Plus with Dolby Atmos

Codec ID : A_EAC3

Duration : 1 h 40 min

Bit rate mode : Constant

Bit rate : 768 kb/s

Channel(s) : 6 channels

Channel layout : L R C LFE Ls Rs

Sampling rate : 48.0 kHz

Frame rate : 31.250 FPS (1536 SPF)

Compression mode : Lossy

Stream size : 552 MiB (9%)

Language : English

Service kind : Complete Main

Default : No

Forced : No

Complexity index : 16

Number of dynamic objects : 15

Bed channel count : 1 channel

Bed channel configuration : LFE



Text #1

ID : 5

Format : UTF-8

Codec ID : S_TEXT/UTF8

Codec ID/Info : UTF-8 Plain Text

Duration : 1 h 40 min

Bit rate : 110 b/s

Count of elements : 1546

Stream size : 81.2 KiB (0%)

Title : Full (FOCS)

Language : Russian

Default : No

Forced : No



Text #2

ID : 6

Format : UTF-8

Codec ID : S_TEXT/UTF8

Codec ID/Info : UTF-8 Plain Text

Duration : 1 h 39 min

Bit rate : 119 b/s

Count of elements : 1599

Stream size : 87.4 KiB (0%)

Title : Full

Language : Ukrainian

Default : No

Forced : No



Text #3

ID : 7

Format : UTF-8

Codec ID : S_TEXT/UTF8

Codec ID/Info : UTF-8 Plain Text

Duration : 1 h 40 min

Bit rate : 78 b/s

Count of elements : 1857

Stream size : 57.7 KiB (0%)

Title : SDH

Language : English

Default : No

Forced : NoСкриншоты

Discussion

Comments 0

Post Your Comment

Files in this torrent

FILENAMESIZE
Soul.2020.WEB-DL.1080p.MVO.mkv5.8 GB

Alternative Torrents for 'Soul MVO'.

TORRENT NAMEADDEDSIZESEEDSPEERSHEALTH
1/12/20211.5 GB153362
1/12/20215.6 GB127665
1/2/202115.1 GB00
1/2/202116.8 GB00
1/1/2021422 MB00
12/29/20201.5 GB00
12/29/20205.8 GB00
4/19/20191.4 GB00