The Croods A New Age (2020) WEB-DL 1080p Ukr Eng

Torrent Details

The Croods A New Age (2020) WEB-DL 1080p Ukr Eng

NAME
The Croods A New Age (2020) WEB-DL 1080p Ukr Eng.torrent
CATEGORY
Movies
INFOHASH
a3a1432ec649dafb5d8a8d534eccc55babf0d2d6
SIZE
5.7 GB in 1 file
ADDED
Uploaded on 03-01-2021 by our crawler pet called "Spidey".
SWARM
0 seeders & 0 peers
RATING
No votes yet.

Please login to vote for this torrent.


Description

Информация о фильме

Название: Семейка Крудс: Новоселье

Оригинальное название: The Croods: A New Age

Год выхода: 2020

Жанр: мультфильм, фэнтези, комедия, приключения, семейный





Режиссер: Джоэль Кроуфорд





В ролях: Николас Кейдж, Эмма Стоун, Райан Рейнольдс, Кэтрин Кинер, Клорис Личмен, Кларк Дьюк, Лесли Манн, Питер Динклэйдж, Келли Мари Трэн, Kailey Crawford





О фильме:

Такие харизматичные герои как члены клана Крудс просто не в силах усидеть на месте. Они смело идут навстречу самым головокружительным приключениям и готовы ответить непредсказуемостью и находчивостью на любой вызов судьбы.











Страна: США

Продолжительность: 01:35:13

Перевод: Профессиональный дублированный (Line / Украинский)





Файл

Кодек: x.264

Качество: WEB-DL 1080p

Видео: AVC, 1920x816 (2.35:1), 23.976 fps, 7 802 kb/s

Аудио 1: AC3, 48.0 kHz, 2 ch, 192 kb/s | [DUB - Line] UKR

Аудио 2: E-AC3, 48.0 kHz, 6 ch, 640 kb/s | [Оригинал] ENG

Субтитры: украинские, английские



Сэмпл | Трейлер (Укр)





MIGeneral

Unique ID : 231469234863125443703483363478433963784 (0xAE235A6251ACBBC7B4FED380ECF01F08)

Complete name : The.Croods.A.New.Age.(2020).WEB-DL.1080p.Ukr.Eng.mkv

Format : Matroska

Format version : Version 4

File size : 5.74 GiB

Duration : 1 h 35 min

Overall bit rate : 8 637 kb/s

Encoded date : UTC 2021-01-02 20:30:28

Writing application : mkvmerge v8.3.0 ('Over the Horizon') 64bit

Writing library : libebml v1.3.1 + libmatroska v1.4.2



Video

ID : 1

Format : AVC

Format/Info : Advanced Video Codec

Format profile : [email protected]

Format settings : CABAC / 4 Ref Frames

Format settings, CABAC : Yes

Format settings, ReFrames : 4 frames

Codec ID : V_MPEG4/ISO/AVC

Duration : 1 h 35 min

Bit rate mode : Constant

Bit rate : 7 802 kb/s

Nominal bit rate : 10 000 kb/s

Width : 1 920 pixels

Height : 816 pixels

Display aspect ratio : 2.35:1

Frame rate mode : Constant

Frame rate : 23.976 (24000/1001) FPS

Color space : YUV

Chroma subsampling : 4:2:0

Bit depth : 8 bits

Scan type : Progressive

Bits/(Pixel*Frame) : 0.208

Stream size : 5.19 GiB (90%)

Language : English

Default : Yes

Forced : No

Color range : Limited

Color primaries : BT.709

Transfer characteristics : BT.709

Matrix coefficients : BT.709



Audio #1

ID : 2

Format : AC-3

Format/Info : Audio Coding 3

Commercial name : Dolby Digital

Codec ID : A_AC3

Duration : 1 h 35 min

Bit rate mode : Constant

Bit rate : 192 kb/s

Channel(s) : 2 channels

Channel layout : L R

Sampling rate : 48.0 kHz

Frame rate : 31.250 FPS (1536 SPF)

Bit depth : 16 bits

Compression mode : Lossy

Stream size : 131 MiB (2%)

Title : DUB (Line)

Language : Ukrainian

Service kind : Complete Main

Default : Yes

Forced : No



Audio #2

ID : 3

Format : E-AC-3

Format/Info : Enhanced AC-3

Commercial name : Dolby Digital Plus

Codec ID : A_EAC3

Duration : 1 h 35 min

Bit rate mode : Constant

Bit rate : 640 kb/s

Channel(s) : 6 channels

Channel layout : L R C LFE Ls Rs

Sampling rate : 48.0 kHz

Frame rate : 31.250 FPS (1536 SPF)

Compression mode : Lossy

Stream size : 436 MiB (7%)

Language : English

Service kind : Complete Main

Default : No

Forced : No



Text #1

ID : 4

Format : UTF-8

Codec ID : S_TEXT/UTF8

Codec ID/Info : UTF-8 Plain Text

Duration : 1 h 27 min

Bit rate : 121 b/s

Count of elements : 1604

Stream size : 77.2 KiB (0%)

Title : Full

Language : Ukrainian

Default : No

Forced : No



Text #2

ID : 5

Format : UTF-8

Codec ID : S_TEXT/UTF8

Codec ID/Info : UTF-8 Plain Text

Duration : 1 h 35 min

Bit rate : 87 b/s

Count of elements : 2402

Stream size : 61.2 KiB (0%)

Title : Full

Language : English

Default : No

Forced : NoСкриншоты

Discussion

Comments 0

Post Your Comment

Files in this torrent

FILENAMESIZE
The.Croods.A.New.Age.(2020).WEB-DL.1080p.Ukr.Eng.mkv5.7 GB

Alternative Torrents for 'Croods Age Ukr Eng'.

TORRENT NAMEADDEDSIZESEEDSPEERSHEALTH
1/3/202110.5 GB30
1/3/20211.5 GB30
1/3/20215.7 GB00