Nobody 2021 AMZN WEB-DL 1080p

Torrent Details


Nobody 2021 AMZN WEB-DL 1080p

NAME
Nobody 2021 AMZN WEB-DL 1080p.torrent
CATEGORY
Movies
INFOHASH
8d3e0738cbbfa29b7fc3c160d4db0b37b8c6457a
SIZE
6.6 GB in 1 file
ADDED
Uploaded on 16-04-2021 by our crawler pet called "Spidey".
SWARM
0 seeders & 0 peers
RATING
No votes yet.

Please login to vote for this torrent.


Description

Информация о фильме

Название: Никто

Оригинальное название: Nobody

Год выхода: 2021

Жанр: боевик, триллер, криминал





Режиссер: Илья Найшуллер





В ролях: Боб Оденкёрк, Алексей Серебряков, Конни Нильсен, Кристофер Ллойд, Майкл Айронсайд, Колин Сэлмон, RZA, Билли Маклеллан, Арая Менгеша, Гейдж Манро





О фильме:

Непримечательный и незаметный человек живёт обычной жизнью, пока однажды, спасая женщину от нападения бандитов, не отправляет одного из хулиганов в больницу. Лишь позже он узнаёт, что это был брат влиятельного гангстера, который теперь жаждет мести.











Страна: США

Продолжительность: 01:31:40

Перевод: Любительский (многоголосый) | За бутылку





Файл

Кодек: x.264

Качество: WEB-DL 1080p | Amazon

Видео: AVC, 1920x800 (2.40:1), 23.976 fps, 9 368 kb/s

Аудио 1: AC-3, 44.1 kHz, 2 ch, 320 kb/s | RUS

Аудио 2: E-AC-3, 48.0 kHz, 6 ch, 640 kb/s | ENG

Субтитры: Английские







Рекламы нет | Сэмпл | Трейлер



MIGeneral

Unique ID : 234553880420117469950510235115212954249 (0xB0756F26E6AA5F7EA7CB014F876ADA89)

Complete name : Nobody.2021.AMZN.WEB-DL.1080p.mkv

Format : Matroska

Format version : Version 4

File size : 6.62 GiB

Duration : 1 h 31 min

Overall bit rate : 10.3 Mb/s

Encoded date : UTC 2021-04-15 22:29:07

Writing application : mkvmerge v8.3.0 ('Over the Horizon') 64bit

Writing library : libebml v1.3.1 + libmatroska v1.4.2



Video

ID : 1

Format : AVC

Format/Info : Advanced Video Codec

Format profile : [email protected]

Format settings : CABAC / 4 Ref Frames

Format settings, CABAC : Yes

Format settings, ReFrames : 4 frames

Codec ID : V_MPEG4/ISO/AVC

Duration : 1 h 31 min

Bit rate mode : Constant

Bit rate : 9 368 kb/s

Nominal bit rate : 10 000 kb/s

Width : 1 920 pixels

Height : 800 pixels

Display aspect ratio : 2.40:1

Frame rate mode : Constant

Frame rate : 23.976 (24000/1001) FPS

Color space : YUV

Chroma subsampling : 4:2:0

Bit depth : 8 bits

Scan type : Progressive

Bits/(Pixel*Frame) : 0.254

Stream size : 6.00 GiB (91%)

Default : Yes

Forced : No

Color range : Limited

Color primaries : BT.709

Transfer characteristics : BT.709

Matrix coefficients : BT.709



Audio #1

ID : 2

Format : AC-3

Format/Info : Audio Coding 3

Commercial name : Dolby Digital

Codec ID : A_AC3

Duration : 1 h 31 min

Bit rate mode : Constant

Bit rate : 320 kb/s

Channel(s) : 2 channels

Channel layout : L R

Sampling rate : 44.1 kHz

Frame rate : 28.711 FPS (1536 SPF)

Bit depth : 16 bits

Compression mode : Lossy

Stream size : 210 MiB (3%)

Title : MVO (За бутылку)

Language : Russian

Service kind : Complete Main

Default : Yes

Forced : No



Audio #2

ID : 3

Format : E-AC-3

Format/Info : Enhanced AC-3

Commercial name : Dolby Digital Plus

Codec ID : A_EAC3

Duration : 1 h 31 min

Bit rate mode : Constant

Bit rate : 640 kb/s

Channel(s) : 6 channels

Channel layout : L R C LFE Ls Rs

Sampling rate : 48.0 kHz

Frame rate : 31.250 FPS (1536 SPF)

Compression mode : Lossy

Stream size : 420 MiB (6%)

Language : English

Service kind : Complete Main

Default : No

Forced : No



Text #1

ID : 4

Format : UTF-8

Codec ID : S_TEXT/UTF8

Codec ID/Info : UTF-8 Plain Text

Duration : 1 h 26 min

Bit rate : 28 b/s

Count of elements : 740

Stream size : 18.1 KiB (0%)

Title : Full

Language : English

Default : No

Forced : No



Text #2

ID : 5

Format : UTF-8

Codec ID : S_TEXT/UTF8

Codec ID/Info : UTF-8 Plain Text

Duration : 1 h 31 min

Bit rate : 48 b/s

Count of elements : 1329

Stream size : 32.4 KiB (0%)

Title : SDH

Language : English

Default : No

Forced : NoСкриншоты

Discussion

Comments 0

Post Your Comment

Files in this torrent

FILENAMESIZE
Nobody.2021.AMZN.WEB-DL.1080p.mkv6.6 GB

Alternative Torrents for 'Nobody'.

TORRENT NAMEADDEDSIZESEEDSPEERSHEALTH
4/30/20218.2 GB22121
5/1/2021702 MB1814
5/3/20218.1 GB162
4/27/2021336 MB121
4/30/2021893 MB1117
5/5/202110.1 GB915
5/5/202116 GB912
5/3/20211.5 GB90
4/28/20216 MB90
5/4/20218.1 GB315
4/28/20219.6 GB20
4/30/2021824 MB00
4/30/20211 GB00
4/21/2021830 MB00
4/21/2021828 MB00