Nobody 2021 2160p AMZN WEB-DL X265 10bit HDR10Plus DDP5.1-SWTYBLZ

Torrent Details


Nobody 2021 2160p AMZN WEB-DL x265 10bit HDR10Plus DDP5.1<span style=color:#fc9c6d>-SWTYBLZ</span>

NAME
Nobody 2021 2160p AMZN WEB-DL x265 10bit HDR10Plus DDP5.1-SWTYBLZ.torrent
CATEGORY
Movies
INFOHASH
f86e65add16a41942839be264828d3e03151fede
SIZE
10 GB in 2 files
ADDED
Uploaded on 17-04-2021 by our crawler pet called "Spidey".
SWARM
0 seeders & 0 peers
RATING
No votes yet.

Please login to vote for this torrent.


Description

帖子完整标题:小人物/无名小卒 Nobody.2021.2160p.AMZN.WEB-DL.x265.10bit.HDR10Plus.DDP5.1-SWTYBLZ 9.96GB  一天晚上,Hutch(鲍勃·奥登科克 Bob Odenkirk 饰)位于郊区的家中遭两名小偷闯入。为了避免暴力冲突,Hutch没有为自己或是家人反击。他的儿子Blake(盖奇·芒罗 Gage Munroe 饰)对他感到很失望,他的老婆Becca(康妮·尼尔森 ConnieNielsen 饰)似乎也因此更加疏远他。这起事件激发了Hutch心中压抑许久的情绪和本能,促使他走上残酷的道路,将揭露他黑暗的秘密和致命的能力。在拳头、枪弹和急速行驶的车阵中,Hutch必须从危险的敌人(阿列克谢·谢列布里亚科夫 AlexeySerebryakov 饰)手中救出自己的家人,并确保别人不会再把他视作无名小卒。Video ID : 1 Format : HEVC Format/Info : High Efficiency Video Coding Format profile : Main [email protected]@Main HDR format : SMPTE ST 2094 App 4, Version 1, HDR10+ Profile B compatible Codec ID : V_MPEGH/ISO/HEVC Duration : 1 h 31 min Bit rate : 14.9 Mb/s Width : 3 840 pixels Height : 1 600 pixels Display aspect ratio : 2.40:1 Frame rate mode : Constant Frame rate : 23.976 (24000/1001/189150) FPS Color space : YUV Chroma subsampling : 4:2:0 Bit depth : 10 bits Bits/(Pixel*Frame) : 0.101 Stream size : 9.55 GiB (96%) Default : Yes Forced : No Color range : Limited Color primaries : BT.2020 Transfer characteristics : PQ Matrix coefficients : BT.2020 non-constant Mastering display color primaries : Display P3 Mastering display luminance : min: 0.0050 cd/m2, max: 1000 cd/m2 Maximum Content Light Level : 1000 cd/m2 Maximum Frame-Average Light Level : 312 cd/m2 Audio ID : 2 Format : E-AC-3 Format/Info : Enhanced AC-3 Commercial name : Dolby Digital Plus Codec ID : A_EAC3 Duration : 1 h 31 min Bit rate mode : Constant Bit rate : 640 kb/s Channel(s) : 6 channels Channel layout : L R C LFE Ls Rs Sampling rate : 48.0 kHz Frame rate : 31.250 FPS (1536 SPF) Compression mode : Lossy Stream size : 420 MiB (4%) Language : English Service kind : Complete Main Default : Yes Forced : No Text #1 ID : 3 Format : UTF-8 Codec ID : S_TEXT/UTF8 Codec ID/Info : UTF-8 Plain Text Duration : 1 h 26 min Bit rate : 28 b/s Count of elements : 740 Stream size : 18.1 KiB (0%) Language : English Default : Yes Forced : No Text #2 ID : 4 Format : UTF-8 Codec ID : S_TEXT/UTF8 Codec ID/Info : UTF-8 Plain Text Duration : 1 h 31 min Bit rate : 48 b/s Count of elements : 1329 Stream size : 32.4 KiB (0%) Title : SDH Language : English Default : No Forced : No

Discussion

Comments 0

Post Your Comment

Files in this torrent

FILENAMESIZE
Nobody.2021.2160p.AMZN.WEB-DL.x265.10bit.HDR10Plus.DDP5.1-SWTYBLZ.mkv10 GB
RARBG.txt31 B

Alternative Torrents for 'Nobody bit HDRPlus DDP'.

There are no alternative torrents found.