The Marksman 2021 MVO WEB-DL 1080p SeleZen

Torrent Details


The Marksman 2021 MVO WEB-DL 1080p<span style=color:#fc9c6d> seleZen</span>

NAME
The Marksman 2021 MVO WEB-DL 1080p seleZen.torrent
CATEGORY
Movies
INFOHASH
cbe2de95b29db82342fa8d970337a47656793fbc
SIZE
4.1 GB in 1 file
ADDED
Uploaded on 18-04-2021 by our crawler pet called "Spidey".
SWARM
0 seeders & 0 peers
RATING
No votes yet.

Please login to vote for this torrent.


Description

Информация о фильме

Название: Заступник

Оригинальное название: The Marksman

Год выхода: 2021

Жанр: Боевик, криминал, триллер

Режиссер: Роберт Лоренц

В ролях: Лиам Нисон, Кэтрин Уинник, Тереса Руис, Хуан Пабло Раба, Грэйсон Берри, Лелия Симингтон, Люче Рэйнс, Дилан Кенин, Чейз Маллинз, Томми Лафит, Шон А. Розалес, Хосе Л. Васкес, Антонио Лейба, Алекс Найт, Дэвид ДеЛао







О фильме: Джим был лучшим профессиональным снайпером, но теперь он оставил войны позади и ведет уединенную мирную жизнь. Покою приходит конец, когда он решает вступиться за беззащитного мальчика, случайно ставшего свидетелем преступлений могущественного наркокартеля. С этого момента Джиму предстоит в одиночку противостоять киллерам, используя все свои боевые навыки.



Страна: США

Студия: Cutting Edge Group, Raven Capital Management, Sculptor Media, Stonehouse Motion Pictures, UTA Independent Film Group, Voltage Pictures, Zero Gravity Management

Продолжительность: 01:47:29

Перевод: Профессиональный многоголосый | HDRezka Studio



Качество: WEB-DL 1080p

Видео: MPEG-4 AVC, 1920x804, 4579 Kbit/s, 24.000 fps

Аудио #01: 48 kHz, AC3, 5.1, 448 Kbps | Профессиональный многоголосый | HDRezka Studio | RUS |

Аудио #02: 48 kHz, AC3, 5.1, 384 Kbps | Оригинал | ENG |

Субтитры: Русские (Forced, full), английские







MIGeneral

Unique ID : 240175523375616545875382560461011767992 (0xB4B01F8C832682F4CEB7E86C752352B8)

Complete name : F:Video111The.Marksman.2021.MVO.WEB-DL.1080p.seleZen.mkv

Format : Matroska

Format version : Version 4

File size : 4.06 GiB

Duration : 1 h 47 min

Overall bit rate : 5 413 kb/s

Movie name : The Marksman 2021 from seleZen

Encoded date : UTC 2021-04-18 00:08:41

Writing application : mkvmerge v55.0.0 ('Waiting For Space') 64-bit

Writing library : libebml v1.4.2 + libmatroska v1.6.4



Video

ID : 1

Format : AVC

Format/Info : Advanced Video Codec

Format profile : [email protected]

Format settings : CABAC / 5 Ref Frames

Format settings, CABAC : Yes

Format settings, Reference : 5 frames

Codec ID : V_MPEG4/ISO/AVC

Duration : 1 h 47 min

Bit rate : 4 579 kb/s

Width : 1 920 pixels

Height : 804 pixels

Display aspect ratio : 2.40:1

Frame rate mode : Constant

Frame rate : 24.000 FPS

Color space : YUV

Chroma subsampling : 4:2:0

Bit depth : 8 bits

Scan type : Progressive

Bits/(Pixel*Frame) : 0.124

Stream size : 3.44 GiB (85%)

Language : English

Default : Yes

Forced : No

Color range : Limited

Color primaries : BT.709

Transfer characteristics : BT.709

Matrix coefficients : BT.709



Audio #1

ID : 2

Format : AC-3

Format/Info : Audio Coding 3

Commercial name : Dolby Digital

Codec ID : A_AC3

Duration : 1 h 47 min

Bit rate mode : Constant

Bit rate : 448 kb/s

Channel(s) : 6 channels

Channel layout : L R C LFE Ls Rs

Sampling rate : 48.0 kHz

Frame rate : 31.250 FPS (1536 SPF)

Compression mode : Lossy

Stream size : 344 MiB (8%)

Title : MVO [HDRezka Studio]

Language : Russian

Service kind : Complete Main

Default : Yes

Forced : Yes



Audio #2

ID : 3

Format : AC-3

Format/Info : Audio Coding 3

Commercial name : Dolby Digital

Codec ID : A_AC3

Duration : 1 h 47 min

Bit rate mode : Constant

Bit rate : 384 kb/s

Channel(s) : 6 channels

Channel layout : L R C LFE Ls Rs

Sampling rate : 48.0 kHz

Frame rate : 31.250 FPS (1536 SPF)

Compression mode : Lossy

Stream size : 295 MiB (7%)

Title : Original

Language : English

Service kind : Complete Main

Default : No

Forced : No



Text #1

ID : 4

Format : UTF-8

Codec ID : S_TEXT/UTF8

Codec ID/Info : UTF-8 Plain Text

Duration : 1 h 37 min

Bit rate : 5 b/s

Count of elements : 136

Stream size : 4.24 KiB (0%)

Title : Forced

Language : Russian

Default : Yes

Forced : Yes



Text #2

ID : 5

Format : UTF-8

Codec ID : S_TEXT/UTF8

Codec ID/Info : UTF-8 Plain Text

Duration : 1 h 39 min

Bit rate : 52 b/s

Count of elements : 860

Stream size : 38.5 KiB (0%)

Title : Full

Language : Russian

Default : No

Forced : No



Text #3

ID : 6

Format : UTF-8

Codec ID : S_TEXT/UTF8

Codec ID/Info : UTF-8 Plain Text

Duration : 1 h 37 min

Bit rate : 31 b/s

Count of elements : 897

Stream size : 22.3 KiB (0%)

Title : Full

Language : English

Default : No

Forced : No



Menu

00:00:00.000 : en:Chapter 01

00:04:18.916 : en:Chapter 02

00:14:56.207 : en:Chapter 03

00:30:25.539 : en:Chapter 04

00:47:49.372 : en:Chapter 05

00:58:16.955 : en:Chapter 06

01:18:55.830 : en:Chapter 07

01:32:26.205 : en:Chapter 08

01:38:37.162 : en:Chapter 09

01:42:26.869 : en:Chapter 10



Релиз: Присоединяйся к:



Discussion

Comments 0

Post Your Comment

Files in this torrent

FILENAMESIZE
The.Marksman.2021.MVO.WEB-DL.1080p.seleZen.mkv4.1 GB

Alternative Torrents for 'Marksman MVO'.

TORRENT NAMEADDEDSIZESEEDSPEERSHEALTH
4/19/20214 GB00
4/18/20212 GB00
4/18/20211.5 GB00
4/18/20214.1 GB00