Nobody_2021_WEB-DL_720p

Torrent Details

Nobody_2021_WEB-DL_720p

NAME
Nobody_2021_WEB-DL_720p.torrent
CATEGORY
Movies
INFOHASH
2e7f33820c467ab1190605ba7abd1dc72452404f
SIZE
4.2 GB in 1 file
ADDED
Uploaded on 20-04-2021 by our crawler pet called "Spidey".
SWARM
29 seeders & 0 peers
RATING
No votes yet.

Please login to vote for this torrent.


Description

Год выпуска: 2021

Страна / студия: США, 87North, Eighty Two Films, Odenkirk Provissiero Entertainment

Жанр: боевик, триллер, криминал

Продолжительность: 01:31:40

Перевод: Профессиональный (многоголосый, закадровый) | HDRezka Studio



Режиссер: Илья Найшуллер

В ролях: Боб Оденкёрк, Алексей Серебряков, Конни Нильсен, Кристофер Ллойд, Майкл Айронсайд, Колин Сэлмон, RZA, Билли Маклеллан, Арая Менгеша, Гейдж Манро



О фильме: Непримечательный и незаметный человек живёт обычной жизнью, пока однажды, спасая женщину от нападения бандитов, не отправляет одного из хулиганов в больницу. Лишь позже он узнаёт, что это был брат влиятельного гангстера, который теперь жаждет мести.







Качество: WEB-DL (720p)| AMZN

Видео: MPEG-4 AVC, 4943 Кбит/с, 1248x520

Аудио 1: AC3, 6ch, 448 Kbps | HDRezka Studio (Censored)

Аудио 2: AC3, 6ch, 448 Kbps | HDRezka Studio (Uncensored)

Аудио 3: E-AC3, 6 ch, 640 Кбит/с | ENG

Субтитры: Русские Русские (Forced, full), английские (Forced, SDH) (вшитые на русскую речь!))

Скриншоты ИнфоОбщее

Уникальный идентификатор : 109433399995858847712063457103903133168 (0x52541B2FB6DF0493111D4E368C1F0DF0)

Полное имя : C:DownloadsNobody_2021_WEB-DL_720p..mkv

Формат : Matroska

Версия формата : Version 4

Размер файла : 4,15 Гбайт

Продолжительность : 1 ч. 31 м.

Общий поток : 6 482 Кбит/сек

Название фильма : Nobody_2021_WEB-DL_720p.

Дата кодирования : UTC 2021-04-20 05:48:32

Программа кодирования : mkvmerge v53.0.0 ('Fool's Gold') 64-bit

Библиотека кодирования : libebml v1.4.1 + libmatroska v1.6.2



Видео

Идентификатор : 1

Формат : AVC

Формат/Информация : Advanced Video Codec

Профиль формата : [email protected]

Настройки формата : CABAC / 4 Ref Frames

Параметр CABAC формата : Да

Параметр RefFrames формата : 4 кадра

Идентификатор кодека : V_MPEG4/ISO/AVC

Продолжительность : 1 ч. 31 м.

Вид битрейта : Постоянный

Битрейт : 4 943 Кбит/сек

Номинальный битрейт : 6 000 Кбит/сек

Ширина : 1 248 пикселей

Высота : 520 пикселей

Соотношение сторон : 2,40:1

Режим частоты кадров : Постоянный

Частота кадров : 23,976 (24000/1001) кадра/сек

Цветовое пространство : YUV

Субдискретизация насыщенности : 4:2:0

Битовая глубина : 8 бит

Тип развёртки : Прогрессивная

Бит/(Пиксели*Кадры) : 0.318

Размер потока : 3,17 Гбайт (76%)

Default : Да

Forced : Нет

Цветовой диапазон : Limited

Основные цвета : BT.709

Характеристики трансфера : BT.709

Коэффициенты матрицы : BT.709



Аудио #1

Идентификатор : 2

Формат : AC-3

Формат/Информация : Audio Coding 3

Коммерческое название : Dolby Digital

Идентификатор кодека : A_AC3

Продолжительность : 1 ч. 31 м.

Вид битрейта : Постоянный

Битрейт : 448 Кбит/сек

Каналы : 6 каналов

Channel layout : L R C LFE Ls Rs

Частота : 48,0 КГц

Частота кадров : 31,250 кадров/сек (1536 SPF)

Метод сжатия : С потерями

Размер потока : 294 Мбайт (7%)

Заголовок : HDRezka Studio (Censored)

Язык : Russian

Service kind : Complete Main

Default : Да

Forced : Нет



Аудио #2

Идентификатор : 3

Формат : AC-3

Формат/Информация : Audio Coding 3

Коммерческое название : Dolby Digital

Идентификатор кодека : A_AC3

Продолжительность : 1 ч. 31 м.

Вид битрейта : Постоянный

Битрейт : 448 Кбит/сек

Каналы : 6 каналов

Channel layout : L R C LFE Ls Rs

Частота : 48,0 КГц

Частота кадров : 31,250 кадров/сек (1536 SPF)

Метод сжатия : С потерями

Размер потока : 294 Мбайт (7%)

Заголовок : HDRezka Studio (Uncensored)

Язык : Russian

Service kind : Complete Main

Default : Нет

Forced : Нет



Аудио #3

Идентификатор : 4

Формат : E-AC-3

Формат/Информация : Enhanced AC-3

Коммерческое название : Dolby Digital Plus

Идентификатор кодека : A_EAC3

Продолжительность : 1 ч. 31 м.

Вид битрейта : Постоянный

Битрейт : 640 Кбит/сек

Каналы : 6 каналов

Channel layout : L R C LFE Ls Rs

Частота : 48,0 КГц

Частота кадров : 31,250 кадров/сек (1536 SPF)

Метод сжатия : С потерями

Размер потока : 420 Мбайт (10%)

Заголовок : Original

Язык : English

Service kind : Complete Main

Default : Нет

Forced : Нет



Текст #1

Идентификатор : 5

Формат : UTF-8

Идентификатор кодека : S_TEXT/UTF8

Идентификатор кодека/Информация : UTF-8 Plain Text

Продолжительность : 1 ч. 29 м.

Битрейт : 3 бит/сек

Count of elements : 68

Размер потока : 2,41 Кбайт (0%)

Заголовок : [HDRezka Studio

Язык : Russian

Default : Нет

Forced : Нет



Текст #2

Идентификатор : 6

Формат : UTF-8

Идентификатор кодека : S_TEXT/UTF8

Идентификатор кодека/Информация : UTF-8 Plain Text

Продолжительность : 1 ч. 28 м.

Битрейт : 51 бит/сек

Count of elements : 805

Размер потока : 33,3 Кбайт (0%)

Заголовок : FOCS (Uncensored)

Язык : Russian

Default : Нет

Forced : Нет



Текст #3

Идентификатор : 7

Формат : UTF-8

Идентификатор кодека : S_TEXT/UTF8

Идентификатор кодека/Информация : UTF-8 Plain Text

Продолжительность : 1 ч. 26 м.

Битрейт : 28 бит/сек

Count of elements : 740

Размер потока : 18,1 Кбайт (0%)

Заголовок : Forced

Язык : English

Default : Нет

Forced : Нет



Текст #4

Идентификатор : 8

Формат : UTF-8

Идентификатор кодека : S_TEXT/UTF8

Идентификатор кодека/Информация : UTF-8 Plain Text

Продолжительность : 1 ч. 31 м.

Битрейт : 48 бит/сек

Count of elements : 1329

Размер потока : 32,4 Кбайт (0%)

Заголовок : SDH

Язык : English

Default : Нет

Forced : Нет

Discussion

Comments 0

Post Your Comment

Files in this torrent

FILENAMESIZE
Nobody_2021_WEB-DL_720p..mkv4.2 GB

Alternative Torrents for 'NobodyWEBDLp'.

There are no alternative torrents found.