The Courier 2020 WEB-DL 2160p HDR SeleZen

Torrent Details


The Courier 2020 WEB-DL 2160p HDR<span style=color:#fc9c6d> seleZen</span>

NAME
The Courier 2020 WEB-DL 2160p HDR seleZen.torrent
CATEGORY
Movies
INFOHASH
ce2f3065d75526db3e4a4ba870eef8efd7c6db6b
SIZE
12.1 GB in 1 file
ADDED
Uploaded on 25-04-2021 by our crawler pet called "Spidey".
SWARM
17 seeders & 1 peers
RATING
No votes yet.

Please login to vote for this torrent.


Description

Информация о фильме

Название: Игры шпионов

Оригинальное название: The Courier

Год выхода: 2020

Жанр: Триллер

Режиссер: Доминик Кук

В ролях: Бенедикт Камбербэтч, Рэйчел Броснахэн, Джесси Бакли, Энгус Райт, Мераб Нинидзе, Майлз Ричардсон, Расселл Балог, Бернард Коллако, Элина Алминас







О фильме: Сюжет ленты основан на реальной истории Винна, который помог ЦРУ внедриться в ядерную программу Советского Союза во время Холодной войны. Британец и его источник, полковник ГРУ и шпион Олег Пеньковский, чьим позывным было слово «Айронбарк», предоставили руководству США данные о реальном военном потенциале СССР накануне Карибского кризиса 1962 года.



Страна: Великобритания, США

Студия: 42, FilmNation Entertainment, SunnyMarch

Продолжительность: 01:52:00

Перевод: Профессиональный многоголосый | HDRezka Studio



Качество: WEB-DL 2160p

Видео: 3840x1600 at 23.976 fps, MPEG-H HEVC HDR Video, ~ 14400 kbps avg

Аудио #01: 48 kHz, AC3, 5.1, 448 Kbps | Профессиональный многоголосый | RUS |

Аудио #02: 48 kHz, E-AC3, 5.1, 640 Kbps | Оригинал | ENG |

Субтитры: Русские (Forced), английские







MIGeneral

Unique ID : 320828084304841811258596887249014689559 (0xF15D3DD014A574185AE90EDFC1230F17)

Complete name : F:VideoThe.Courier.2020.WEB-DL.2160p.HDR.seleZen.mkv

Format : Matroska

Format version : Version 4

File size : 12.1 GiB

Duration : 1 h 52 min

Overall bit rate : 15.5 Mb/s

Movie name : The Courier 2020 from seleZen

Encoded date : UTC 2021-04-25 01:24:09

Writing application : mkvmerge v55.0.0 ('Waiting For Space') 64-bit

Writing library : libebml v1.4.2 + libmatroska v1.6.4



Video

ID : 1

Format : HEVC

Format/Info : High Efficiency Video Coding

Format profile : Main [email protected]@Main

HDR format : SMPTE ST 2094 App 4, Version 1, HDR10+ Profile B compatible

Codec ID : V_MPEGH/ISO/HEVC

Duration : 1 h 52 min

Bit rate : 14.4 Mb/s

Width : 3 840 pixels

Height : 1 600 pixels

Display aspect ratio : 2.40:1

Frame rate mode : Constant

Frame rate : 23.976 (24000/1001) FPS

Color space : YUV

Chroma subsampling : 4:2:0

Bit depth : 10 bits

Bits/(Pixel*Frame) : 0.098

Stream size : 11.3 GiB (93%)

Language : English

Default : Yes

Forced : No

Color range : Limited

Color primaries : BT.2020

Transfer characteristics : PQ

Matrix coefficients : BT.2020 non-constant

Mastering display color pri : Display P3

Mastering display luminance : min: 0.0001 cd/m2, max: 1000 cd/m2

Maximum Content Light Level : 863 cd/m2

Maximum Frame-Average Light : 115 cd/m2



Audio #1

ID : 2

Format : AC-3

Format/Info : Audio Coding 3

Commercial name : Dolby Digital

Codec ID : A_AC3

Duration : 1 h 52 min

Bit rate mode : Constant

Bit rate : 448 kb/s

Channel(s) : 6 channels

Channel layout : L R C LFE Ls Rs

Sampling rate : 48.0 kHz

Frame rate : 31.250 FPS (1536 SPF)

Compression mode : Lossy

Stream size : 359 MiB (3%)

Title : MVO [HDRezka Studio]

Language : Russian

Service kind : Complete Main

Default : Yes

Forced : Yes



Audio #2

ID : 3

Format : E-AC-3

Format/Info : Enhanced AC-3

Commercial name : Dolby Digital Plus

Codec ID : A_EAC3

Duration : 1 h 52 min

Bit rate mode : Constant

Bit rate : 640 kb/s

Channel(s) : 6 channels

Channel layout : L R C LFE Ls Rs

Sampling rate : 48.0 kHz

Frame rate : 31.250 FPS (1536 SPF)

Compression mode : Lossy

Stream size : 513 MiB (4%)

Title : Original

Language : English

Service kind : Complete Main

Default : No

Forced : No



Text #1

ID : 4

Format : UTF-8

Codec ID : S_TEXT/UTF8

Codec ID/Info : UTF-8 Plain Text

Duration : 1 h 43 min

Bit rate : 2 b/s

Count of elements : 25

Stream size : 2.09 KiB (0%)

Title : Forced

Language : Russian

Default : Yes

Forced : Yes



Text #2

ID : 5

Format : UTF-8

Codec ID : S_TEXT/UTF8

Codec ID/Info : UTF-8 Plain Text

Duration : 1 h 43 min

Bit rate : 53 b/s

Count of elements : 1278

Stream size : 40.2 KiB (0%)

Title : Full

Language : English

Default : No

Forced : No



Релиз: Присоединяйся к:



Discussion

Comments 0

Post Your Comment

Files in this torrent

FILENAMESIZE
The.Courier.2020.WEB-DL.2160p.HDR.seleZen.mkv12.1 GB

Alternative Torrents for 'Courier HDR'.

TORRENT NAMEADDEDSIZESEEDSPEERSHEALTH
4/16/202111.6 GB3826
4/25/202112.1 GB171
4/17/202111.6 GB55
4/19/202111.8 GB44
4/17/202111.9 GB21
6/11/202112.7 GB00