The Courier 2020 WEB-DL 720p ExKinoRay

Torrent Details


The Courier 2020 WEB-DL 720p<span style=color:#fc9c6d> ExKinoRay</span>

NAME
The Courier 2020 WEB-DL 720p ExKinoRay.torrent
CATEGORY
Movies
INFOHASH
d8830e608170302a7b51cfe453a670c55c8317b6
SIZE
2.2 GB in 1 file
ADDED
Uploaded on 25-04-2021 by our crawler pet called "Spidey".
SWARM
15 seeders & 0 peers
RATING
No votes yet.

Please login to vote for this torrent.


Description

Название: Игры шпионов

Оригинальное название: The Courier

Год выхода: 2020

Жанр: триллер

Режиссер: Доминик Кук

В ролях: Бенедикт Камбербэтч, Мераб Нинидзе, Рэйчел Броснахэн, Джесси Бакли, Энгус Райт, Джозеф Балдеррама, Кирилл Пирогов, Владимир Чуприков, Мария Миронова, Фред Хейг, Эмма Пензина, Антон Лессер, Петр Климеш, Элис Орр-Юинг, Оливер Джонстон, Джонатан Харден, Ричард Глейвз, Ондржей Малый



О фильме:

Во время Холодной войны Олег Пеньковский, полковник ГРУ генштаба Минобороны, выходит на связь с Гревиллом Винном, британским бизнесменом и шпионом, заинтересованном в постоянном контакте с Москвой. Разведчики договариваются о сотрудничестве, не представляя, чем оно закончится для каждого.







Страна: Великобритания, США

Студия: 42, FilmNation Entertainment, SunnyMarch

Продолжительность: 01:52:00

Перевод: Профессиональный многоголосый | HDRezka Studio



Формат: MKV

Качество: WEB-DL 720p

Видео: MPEG-4 AVC, 1280x536, 1670 Kbit/s, 23.976 fps

Аудио #01: 48 kHz, AC3, 5.1, 448 Kbps | Профессиональный многоголосый | RUS |

Аудио #02: 48 kHz, E-AC3, 5.1, 640 Kbps | Оригинал | ENG |

Субтитры: Русские (Forced), английские











MI



General

Unique ID : 221739068568094155144937705886550704326 (0xA6D16425A7E5EDAE8E9379AFF0C5C0C6)

Complete name : F:The.Courier.2020.WEB-DL.720p.ExKinoRay.mkv

Format : Matroska

Format version : Version 4

File size : 2.16 GiB

Duration : 1 h 52 min

Overall bit rate : 2 760 kb/s

Movie name : The Courier 2020 from ExKinoRay

Encoded date : UTC 2021-04-25 01:59:00

Writing application : mkvmerge v7.3.0 ('Nouages') 64bit built on Oct 22 2014 18:53:34

Writing library : libebml v1.3.0 + libmatroska v1.4.1



Video

ID : 1

Format : AVC

Format/Info : Advanced Video Codec

Format profile : [email protected]

Format settings : CABAC / 4 Ref Frames

Format settings, CABAC : Yes

Format settings, Reference : 4 frames

Codec ID : V_MPEG4/ISO/AVC

Duration : 1 h 52 min

Bit rate mode : Constant

Bit rate : 1 670 kb/s

Nominal bit rate : 6 000 kb/s

Width : 1 248 pixels

Height : 520 pixels

Display aspect ratio : 2.40:1

Frame rate mode : Constant

Frame rate : 23.976 (24000/1001) FPS

Color space : YUV

Chroma subsampling : 4:2:0

Bit depth : 8 bits

Scan type : Progressive

Bits/(Pixel*Frame) : 0.107

Stream size : 1.31 GiB (61%)

Language : English

Default : Yes

Forced : No

Color range : Limited

Color primaries : BT.709

Transfer characteristics : BT.709

Matrix coefficients : BT.709



Audio #1

ID : 2

Format : AC-3

Format/Info : Audio Coding 3

Commercial name : Dolby Digital

Codec ID : A_AC3

Duration : 1 h 52 min

Bit rate mode : Constant

Bit rate : 448 kb/s

Channel(s) : 6 channels

Channel layout : L R C LFE Ls Rs

Sampling rate : 48.0 kHz

Frame rate : 31.250 FPS (1536 SPF)

Compression mode : Lossy

Stream size : 359 MiB (16%)

Title : MVO (HDRezka Studio)

Language : Russian

Service kind : Complete Main

Default : Yes

Forced : No



Audio #2

ID : 3

Format : E-AC-3

Format/Info : Enhanced AC-3

Commercial name : Dolby Digital Plus

Codec ID : A_EAC3

Duration : 1 h 52 min

Bit rate mode : Constant

Bit rate : 640 kb/s

Channel(s) : 6 channels

Channel layout : L R C LFE Ls Rs

Sampling rate : 48.0 kHz

Frame rate : 31.250 FPS (1536 SPF)

Compression mode : Lossy

Stream size : 513 MiB (23%)

Language : English

Service kind : Complete Main

Default : No

Forced : No



Text #1

ID : 4

Format : UTF-8

Codec ID : S_TEXT/UTF8

Codec ID/Info : UTF-8 Plain Text

Duration : 1 h 43 min

Bit rate : 2 b/s

Count of elements : 25

Stream size : 2.09 KiB (0%)

Title : Forced

Language : Russian

Default : Yes

Forced : No



Text #2

ID : 5

Format : UTF-8

Codec ID : S_TEXT/UTF8

Codec ID/Info : UTF-8 Plain Text

Duration : 1 h 43 min

Bit rate : 53 b/s

Count of elements : 1278

Stream size : 40.2 KiB (0%)

Title : Full

Language : English

Default : No

Forced : No









Релиз от:



Автор релиза:

Discussion

Comments 0

Post Your Comment

Files in this torrent

FILENAMESIZE
The.Courier.2020.WEB-DL.720p.ExKinoRay.mkv2.2 GB

Alternative Torrents for 'Courier'.

TORRENT NAMEADDEDSIZESEEDSPEERSHEALTH
4/16/20212.1 GB38252
4/16/20211.3 GB23451
4/16/2021797 MB19029
4/16/20211 GB17017
4/17/20212.1 GB7512
4/16/20213.6 GB684
4/16/202111.6 GB5314
4/17/20213.6 GB2311
4/16/20211.4 GB226
8/21/20212.3 GB182
5/21/2021890 MB161
4/25/202112.1 GB161
4/25/20216.3 GB160
6/10/202110.5 GB150
4/25/20212.2 GB150