The Boss Baby Family Business 2021 720p 10bit WEBRip English 5 1 X265 - MkvAnime [Telly]

Torrent Details


The Boss Baby Family Business 2021 720p 10bit WEBRip English 5 1 x265 - mkvAnime [Telly]

NAME
The Boss Baby Family Business 2021 720p 10bit WEBRip English 5 1 x265 - mkvAnime [Telly].torrent
CATEGORY
Movies
INFOHASH
a6fca427daabcb17875713bfc571222d32f341a8
SIZE
763 MB in 1 file
ADDED
Uploaded on 02-07-2021 by our crawler pet called "Spidey".
SWARM
5 seeders & 2 peers
RATING
No votes yet.

Please login to vote for this torrent.


Description









General

Unique ID                                : 55160021816466168479392477416790933390 (0x297F6F0BDFD6DB0415FBA1BBB14BBF8E)

Complete name                            : D:EncodeThe Boss Baby Family Business 2021 720p 10bit WEBRip English 5.1 x265 - mkvAnime [Telly].mkv

Format                                   : Matroska

Format version                           : Version 4

File size                                : 763 MiB

Duration                                 : 1 h 47 min

Overall bit rate                         : 994 kb/s

Movie name                               : mkvAnime - Telly / Encoded By: mkvAnime

Encoded date                             : UTC 2021-07-02 12:10:18

Writing application                      : mkvmerge v39.0.0 ('In The Waiting Line') 64-bit

Writing library                          : libebml v1.3.9 + libmatroska v1.5.2

Video

ID                                       : 1

Format                                   : HEVC

Format/Info                              : High Efficiency Video Coding

Format profile                           : Main [email protected]@Main

Codec ID                                 : V_MPEGH/ISO/HEVC

Duration                                 : 1 h 47 min

Bit rate                                 : 799 kb/s

Width                                    : 1 280 pixels

Height                                   : 536 pixels

Display aspect ratio                     : 2.40:1

Frame rate mode                          : Constant

Frame rate                               : 23.976 (24000/1001) FPS

Color space                              : YUV

Chroma subsampling                       : 4:2:0

Bit depth                                : 10 bits

Bits/(Pixel*Frame)                       : 0.049

Stream size                              : 614 MiB (80%)

Title                                    : mkvAnime - Telly

Default                                  : Yes

Forced                                   : No

Color range                              : Limited

Color primaries                          : BT.709

Transfer characteristics                 : BT.709

Matrix coefficients                      : BT.709

Audio

ID                                       : 2

Format                                   : AAC LC

Format/Info                              : Advanced Audio Codec Low Complexity

Codec ID                                 : A_AAC-2

Duration                                 : 1 h 47 min

Bit rate                                 : 192 kb/s

Channel(s)                               : 6 channels

Channel layout                           : L R C Cb Lb Rb

Sampling rate                            : 48.0 kHz

Frame rate                               : 46.875 FPS (1024 SPF)

Compression mode                         : Lossy

Stream size                              : 148 MiB (19%)

Title                                    : Telly

Language                                 : English

Default                                  : No

Forced                                   : No

Text

ID                                       : 3

Format                                   : UTF-8

Codec ID                                 : S_TEXT/UTF8

Codec ID/Info                            : UTF-8 Plain Text

Duration                                 : 1 h 47 min

Bit rate                                 : 100 b/s

Count of elements                        : 2781

Stream size                              : 78.5 KiB (0%)

Title                                    : Telly

Language                                 : English

Default                                  : No

Forced                                   : No














Discussion

Comments 0

Post Your Comment

Files in this torrent

FILENAMESIZE
The Boss Baby Family Business 2021 720p 10bit WEBRip English 5.1 x265 - mkvAnime [Telly].mkv763 MB

Alternative Torrents for 'Boss Baby Family Business bit English mkvAnime Telly'.

There are no alternative torrents found.