A Quiet Place Part II 2020 WEB-DL 1080 SeleZen

Torrent Details


A Quiet Place Part II 2020 WEB-DL 1080<span style=color:#fc9c6d> seleZen</span>

NAME
A Quiet Place Part II 2020 WEB-DL 1080 seleZen.torrent
CATEGORY
Movies
INFOHASH
1a25a9ff78581432a0df3cffd990d73cc3adcd86
SIZE
7.7 GB in 1 file
ADDED
Uploaded on 07-07-2021 by our crawler pet called "Spidey".
SWARM
50 seeders & 1 peers
RATING
No votes yet.

Please login to vote for this torrent.


Description

Информация о фильме

Название: Тихое место 2

Оригинальное название: A Quiet Place Part II

Год выхода: 2021

Жанр: Ужасы, фантастика, триллер, драма

Режиссер: Джон Красински

В ролях: Эмили Блант, Джон Красински, Милли Симмондс, Ноа Джуп, Киллиан Мёрфи, Джимон Хонсу, Окете Онаодован, Скут МакНэйри, Захари Голингер, Блейк ДеЛонг







О фильме: 474 дня прошло после нападения на Землю охотящихся на звук существ, семья Эбботт продолжает бороться за жизнь в полной тишине. Столкнувшись со смертельной угрозой в собственном доме, они вынуждены отправиться во внешний мир, где находят убежище и старого знакомого семьи. Поймав радиосигнал, Реган вычисляет место предполагаемой колонии выживших и решает во что бы то ни стало её разыскать.



Страна: США

Студия: Buffalo FilmWorks, Paramount Pictures, Platinum Dunes, Sunday Night Productions

Продолжительность: 01:37:01

Перевод: Дублированный | iTunes



Качество: WEB-DL 1080p

Видео: MPEG-4 AVC, 1916x798, 10.2 Mbit/s, 23.976 fps

Аудио #01: 48 kHz, AC3, 5.1, 384 Kbps | iTunes | RUS |

Аудио #02: 48 kHz, E-AC3_Atmos, 5.1, 768 Kbps | Оригинал | ENG |

Субтитры: Русские (Forced, full), украинские (Full), английские







MIGeneral

Unique ID : 113711102068484714421687725833189145631 (0x558BF62E953109D2BEEFC5EF1BCD3C1F)

Complete name : F:VideoA.Quiet.Place.Part.II.2020.WEB-DL.1080.seleZen.mkv

Format : Matroska

Format version : Version 4

File size : 7.66 GiB

Duration : 1 h 37 min

Overall bit rate : 11.3 Mb/s

Movie name : A Quiet Place Part II 2020 from seleZen

Encoded date : UTC 2021-07-07 20:37:48

Writing application : mkvmerge v55.0.0 ('Waiting For Space') 64-bit

Writing library : libebml v1.4.2 + libmatroska v1.6.4



Video

ID : 1

Format : AVC

Format/Info : Advanced Video Codec

Format profile : [email protected]

Format settings : CABAC / 5 Ref Frames

Format settings, CABAC : Yes

Format settings, Reference : 5 frames

Codec ID : V_MPEG4/ISO/AVC

Duration : 1 h 37 min

Bit rate : 10.2 Mb/s

Width : 1 916 pixels

Height : 798 pixels

Display aspect ratio : 2.40:1

Frame rate mode : Constant

Frame rate : 23.976 (24000/1001) FPS

Color space : YUV

Chroma subsampling : 4:2:0

Bit depth : 8 bits

Scan type : Progressive

Bits/(Pixel*Frame) : 0.277

Stream size : 6.88 GiB (90%)

Language : English

Default : Yes

Forced : No

Color range : Limited

Color primaries : BT.709

Transfer characteristics : BT.709

Matrix coefficients : BT.709



Audio #1

ID : 2

Format : AC-3

Format/Info : Audio Coding 3

Commercial name : Dolby Digital

Codec ID : A_AC3

Duration : 1 h 37 min

Bit rate mode : Constant

Bit rate : 384 kb/s

Channel(s) : 6 channels

Channel layout : L R C LFE Ls Rs

Sampling rate : 48.0 kHz

Frame rate : 31.250 FPS (1536 SPF)

Compression mode : Lossy

Stream size : 266 MiB (3%)

Title : iTunes

Language : Russian

Service kind : Complete Main

Default : Yes

Forced : Yes



Audio #2

ID : 3

Format : E-AC-3 JOC

Format/Info : Enhanced AC-3 with Joint Object Coding

Commercial name : Dolby Digital Plus with Dolby Atmos

Codec ID : A_EAC3

Duration : 1 h 37 min

Bit rate mode : Constant

Bit rate : 768 kb/s

Channel(s) : 6 channels

Channel layout : L R C LFE Ls Rs

Sampling rate : 48.0 kHz

Frame rate : 31.250 FPS (1536 SPF)

Compression mode : Lossy

Stream size : 533 MiB (7%)

Title : Original

Language : English

Service kind : Complete Main

Default : No

Forced : No

Complexity index : 16

Number of dynamic objects : 15

Bed channel count : 1 channel

Bed channel configuration : LFE



Text #1

ID : 4

Format : UTF-8

Codec ID : S_TEXT/UTF8

Codec ID/Info : UTF-8 Plain Text

Duration : 1 h 35 min

Bit rate : 3 b/s

Count of elements : 78

Stream size : 2.26 KiB (0%)

Title : Forced

Language : Russian

Default : Yes

Forced : Yes



Text #2

ID : 5

Format : UTF-8

Codec ID : S_TEXT/UTF8

Codec ID/Info : UTF-8 Plain Text

Duration : 1 h 35 min

Bit rate : 17 b/s

Count of elements : 331

Stream size : 12.4 KiB (0%)

Title : Full

Language : Russian

Default : No

Forced : No



Text #3

ID : 6

Format : UTF-8

Codec ID : S_TEXT/UTF8

Codec ID/Info : UTF-8 Plain Text

Duration : 1 h 35 min

Bit rate : 17 b/s

Count of elements : 339

Stream size : 12.4 KiB (0%)

Title : Full

Language : Ukrainian

Default : No

Forced : No



Text #4

ID : 7

Format : UTF-8

Codec ID : S_TEXT/UTF8

Codec ID/Info : UTF-8 Plain Text

Duration : 47 min 28 s

Bit rate : 3 b/s

Count of elements : 69

Stream size : 1.26 KiB (0%)

Title : Forced

Language : English

Default : No

Forced : No



Text #5

ID : 8

Format : UTF-8

Codec ID : S_TEXT/UTF8

Codec ID/Info : UTF-8 Plain Text

Duration : 1 h 26 min

Bit rate : 18 b/s

Count of elements : 563

Stream size : 11.9 KiB (0%)

Title : SDH

Language : English

Default : No

Forced : No



Menu

00:00:00.000 : Scene 1

00:06:39.107 : Scene 2

00:12:16.319 : Scene 3

00:17:00.270 : Scene 4

00:26:28.171 : Scene 5

00:33:26.339 : Scene 6

00:38:06.703 : Scene 7

00:45:53.753 : Scene 8

00:51:18.036 : Scene 9

00:55:35.919 : Scene 10

01:02:21.282 : Scene 11

01:08:43.832 : Scene 12

01:16:31.925 : Scene 13

01:21:25.885 : Scene 14

01:28:11.833 : Scene 15



Релиз: Присоединяйся к:



Discussion

Comments 0

Post Your Comment

Files in this torrent

FILENAMESIZE
A.Quiet.Place.Part.II.2020.WEB-DL.1080.seleZen.mkv7.7 GB

Alternative Torrents for 'Quiet Place Part II'.

TORRENT NAMEADDEDSIZESEEDSPEERSHEALTH
7/8/20211.8 GB1941266
7/8/2021889 MB716123
8/3/20211.8 GB57737
8/3/2021889 MB32932
7/8/20214.3 GB2619
7/16/20211.6 GB736
7/7/20217.7 GB501
7/16/202113 GB449
8/12/202112.6 GB302
7/17/20215.4 GB254
7/16/20215 GB230
8/14/20216.5 GB221
8/12/20215.1 GB191
7/16/202112.4 GB180
7/7/202110.5 GB160