Black Widow 2021 720p WEB-DL

Torrent Details


Black Widow 2021 720p WEB<span style=color:#fc9c6d>-DL</span>

NAME
Black Widow 2021 720p WEB-DL.torrent
CATEGORY
Movies
INFOHASH
ddb629a6c98cf893237d6120671bc8fa777b181e
SIZE
4.6 GB in 1 file
ADDED
Uploaded on 10-07-2021 by our crawler pet called "Spidey".
SWARM
43 seeders & 3 peers
RATING
No votes yet.

Please login to vote for this torrent.


Description

Год выпуска: 2021

Страна / студия: USA, Marvel Studios Inc.

Жанр: фантастика, боевик, приключения

Продолжительность: 02:13:46

Перевод: Профессиональный (многоголосый, закадровый) | HDRezka Studio



Режиссер: Кейт Шортланд

В ролях: Скарлетт Йоханссон, Флоренс Пью, Дэвид Харбор, О. Т. Фагбенли, Ольга Куриленко, Уильям Хёрт, Рэй Уинстон, Рэйчел Вайс, Эвер Андерсон, Виолет Макгроу



О фильме: Наташе Романофф предстоит лицом к лицу встретиться со своим прошлым. Чёрной Вдове придется вспомнить о том, что было в её жизни задолго до присоединения к команде Мстителей, и узнать об опасном заговоре, в который оказываются втянуты её старые знакомые — Елена, Алексей (известный как Красный Страж) и Мелина.







Качество: WEB-DL 720p

Видео: MPEG-4 AVC, 3744 Кбит/с, 1280x720

Аудио 1: AC3, 6 ch, 448 Кбит/с |

Аудио 2: E-AC3 JOC, 6 ch, 768 Кбит/с |

Субтитры: Русские (Forced, Full), английские (SDH)

Скриншоты

ИнфоОбщее

Уникальный идентификатор : 265558282264540575108773298440469417384 (0xC7C8AA2EFA707F8A184C6184A51B0DA8)

Полное имя : Black.Widow.2021.720p.WEB-DL..mkv

Формат : Matroska

Версия формата : Version 4

Размер файла : 4,64 Гбайт

Продолжительность : 2 ч. 13 м.

Режим общего битрейта : Переменный

Общий поток : 4 963 Кбит/сек

Название фильма : Black.Widow.2021.720p.WEB-DL.

Дата кодирования : UTC 2021-07-10 19:29:17

Программа кодирования : mkvmerge v53.0.0 ('Fool's Gold') 64-bit

Библиотека кодирования : libebml v1.4.1 + libmatroska v1.6.2



Видео

Идентификатор : 1

Формат : AVC

Формат/Информация : Advanced Video Codec

Профиль формата : [email protected]

Настройки формата : CABAC / 4 Ref Frames

Параметр CABAC формата : Да

Параметр RefFrames формата : 4 кадра

Идентификатор кодека : V_MPEG4/ISO/AVC

Продолжительность : 2 ч. 13 м.

Вид битрейта : Переменный

Битрейт : 3 744 Кбит/сек

Максимальный битрейт : 6 375 Кбит/сек

Ширина : 1 280 пикселей

Высота : 720 пикселей

Соотношение сторон : 16:9

Режим частоты кадров : Постоянный

Частота кадров : 23,976 (24000/1001) кадра/сек

Цветовое пространство : YUV

Субдискретизация насыщенности : 4:2:0

Битовая глубина : 8 бит

Тип развёртки : Прогрессивная

Бит/(Пиксели*Кадры) : 0.169

Размер потока : 3,50 Гбайт (75%)

Default : Да

Forced : Нет

Цветовой диапазон : Limited

Основные цвета : BT.709

Характеристики трансфера : BT.709

Коэффициенты матрицы : BT.709



Аудио #1

Идентификатор : 2

Формат : AC-3

Формат/Информация : Audio Coding 3

Коммерческое название : Dolby Digital

Идентификатор кодека : A_AC3

Продолжительность : 2 ч. 13 м.

Вид битрейта : Постоянный

Битрейт : 448 Кбит/сек

Каналы : 6 каналов

Channel layout : L R C LFE Ls Rs

Частота : 48,0 КГц

Частота кадров : 31,250 кадров/сек (1536 SPF)

Метод сжатия : С потерями

Размер потока : 429 Мбайт (9%)

Заголовок : HDRezka

Язык : Russian

Service kind : Complete Main

Default : Да

Forced : Нет



Аудио #2

Идентификатор : 3

Формат : E-AC-3 JOC

Формат/Информация : Enhanced AC-3 with Joint Object Coding

Коммерческое название : Dolby Digital Plus with Dolby Atmos

Идентификатор кодека : A_EAC3

Продолжительность : 2 ч. 13 м.

Вид битрейта : Постоянный

Битрейт : 768 Кбит/сек

Каналы : 6 каналов

Channel layout : L R C LFE Ls Rs

Частота : 48,0 КГц

Частота кадров : 31,250 кадров/сек (1536 SPF)

Метод сжатия : С потерями

Размер потока : 735 Мбайт (15%)

Заголовок : English

Язык : English

Service kind : Complete Main

Default : Нет

Forced : Нет

Complexity index : 16

Number of dynamic objects : 15

Bed channel count : 1 канал

Bed channel configuration : LFE



Текст #1

Идентификатор : 4

Формат : UTF-8

Идентификатор кодека : S_TEXT/UTF8

Идентификатор кодека/Информация : UTF-8 Plain Text

Продолжительность : 2 ч. 11 м.

Битрейт : 1 бит/сек

Count of elements : 44

Размер потока : 1,71 Кбайт (0%)

Заголовок : Forced

Язык : Russian

Default : Да

Forced : Да



Текст #2

Идентификатор : 5

Формат : UTF-8

Идентификатор кодека : S_TEXT/UTF8

Идентификатор кодека/Информация : UTF-8 Plain Text

Продолжительность : 2 ч. 12 м.

Битрейт : 67 бит/сек

Count of elements : 1282

Размер потока : 65,7 Кбайт (0%)

Заголовок : Full

Язык : Russian

Default : Нет

Forced : Нет



Текст #3

Идентификатор : 6

Формат : UTF-8

Идентификатор кодека : S_TEXT/UTF8

Идентификатор кодека/Информация : UTF-8 Plain Text

Продолжительность : 2 ч. 13 м.

Битрейт : 46 бит/сек

Count of elements : 1630

Размер потока : 45,7 Кбайт (0%)

Заголовок : English SDH

Язык : English

Default : Нет

Forced : Нет

Discussion

Comments 0

Post Your Comment

Files in this torrent

FILENAMESIZE
Black.Widow.2021.720p.WEB-DL..mkv4.6 GB

Alternative Torrents for 'Black Widow'.

TORRENT NAMEADDEDSIZESEEDSPEERSHEALTH
7/9/20212.5 GB5688928
7/9/20211.2 GB2439475
7/9/20211.5 GB712117
9/14/20212.5 GB63381
9/22/20211.2 GB62483
7/22/20211.7 GB60957
7/9/2021899 MB579102
7/21/20216 GB39949
7/9/20217.5 GB313109
7/9/202116 GB238296
7/9/20211.6 GB19241
7/9/20212.6 GB87300
7/9/20217.5 GB727
7/11/20217.7 GB596
9/22/20212.5 GB5816