Black Widow 2021 1080p WEB-DL Line

Torrent Details


Black Widow 2021 1080p WEB-DL Line

NAME
Black Widow 2021 1080p WEB-DL Line.torrent
CATEGORY
Movies
INFOHASH
030f5ac7e558c1effe43bf31a4214155fd487a7b
SIZE
7.7 GB in 1 file
ADDED
Uploaded on 11-07-2021 by our crawler pet called "Spidey".
SWARM
59 seeders & 6 peers
RATING
No votes yet.

Please login to vote for this torrent.


Description

Информация о фильме

Название: Чёрная Вдова

Оригинальное название: Black Widow

Год выхода: 2021

Жанр: фантастика, боевик, приключения





Режиссер: Кейт Шортланд





В ролях: Скарлетт Йоханссон, Флоренс Пью, Дэвид Харбор, О. Т. Фагбенли, Ольга Куриленко, Уильям Хёрт, Рэй Уинстон, Рэйчел Вайс, Эвер Андерсон, Виолет Макгроу





О фильме:

Наташе Романофф предстоит лицом к лицу встретиться со своим прошлым. Чёрной Вдове придется вспомнить о том, что было в её жизни задолго до присоединения к команде Мстителей, и узнать об опасном заговоре, в который оказываются втянуты её старые знакомые — Елена, Алексей (известный как Красный Страж) и Мелина..











Страна: США

Продолжительность: 02:13:46

Перевод(ы): Профессиональный дублированный | Line







Файл

Кодек: x.264

Качество: WEB-DL 1080p

Видео: AVC, 1920x1080 (16:9), 23.976 fps, 7 203 kb/s

Аудио 1: AC3, 48.0 kHz, 2 ch, 256 kb/s | RUS [DUB, Line] (Tnx.KinoPub)

Аудио 2: E-AC3 JOC, 48.0 kHz, 6 ch, 768 kb/s | ENG [Оригинал]

Субтитры: Русские (Forced, Full), английские (SDH)





Рекламы нет | Сэмпл | Трейлер





MIGeneral

Unique ID : 236253202868347737336684432549100767318 (0xB1BCB6379E0E98A4A360954CEABDC856)

Complete name : Black.Widow.2021.1080p.WEB-DL.Line.mkv

Format : Matroska

Format version : Version 4

File size : 7.69 GiB

Duration : 2 h 13 min

Overall bit rate mode : Variable

Overall bit rate : 8 229 kb/s

Encoded date : UTC 2021-07-11 17:43:11

Writing application : mkvmerge v8.3.0 ('Over the Horizon') 64bit

Writing library : libebml v1.3.1 + libmatroska v1.4.2



Video

ID : 1

Format : AVC

Format/Info : Advanced Video Codec

Format profile : [email protected]

Format settings : CABAC / 4 Ref Frames

Format settings, CABAC : Yes

Format settings, ReFrames : 4 frames

Codec ID : V_MPEG4/ISO/AVC

Duration : 2 h 13 min

Bit rate mode : Variable

Bit rate : 7 203 kb/s

Maximum bit rate : 12.7 Mb/s

Width : 1 920 pixels

Height : 1 080 pixels

Display aspect ratio : 16:9

Frame rate mode : Constant

Frame rate : 23.976 (24000/1001) FPS

Color space : YUV

Chroma subsampling : 4:2:0

Bit depth : 8 bits

Scan type : Progressive

Bits/(Pixel*Frame) : 0.145

Stream size : 6.73 GiB (88%)

Default : Yes

Forced : No

Color range : Limited

Color primaries : BT.709

Transfer characteristics : BT.709

Matrix coefficients : BT.709



Audio #1

ID : 2

Format : AC-3

Format/Info : Audio Coding 3

Commercial name : Dolby Digital

Codec ID : A_AC3

Duration : 2 h 13 min

Bit rate mode : Constant

Bit rate : 256 kb/s

Channel(s) : 2 channels

Channel layout : L R

Sampling rate : 48.0 kHz

Frame rate : 31.250 FPS (1536 SPF)

Bit depth : 16 bits

Compression mode : Lossy

Stream size : 245 MiB (3%)

Title : DUB (Line)

Language : Russian

Service kind : Complete Main

Default : Yes

Forced : No



Audio #2

ID : 3

Format : E-AC-3 JOC

Format/Info : Enhanced AC-3 with Joint Object Coding

Commercial name : Dolby Digital Plus with Dolby Atmos

Codec ID : A_EAC3

Duration : 2 h 13 min

Bit rate mode : Constant

Bit rate : 768 kb/s

Channel(s) : 6 channels

Channel layout : L R C LFE Ls Rs

Sampling rate : 48.0 kHz

Frame rate : 31.250 FPS (1536 SPF)

Compression mode : Lossy

Stream size : 735 MiB (9%)

Title : Original

Language : English

Service kind : Complete Main

Default : No

Forced : No

Complexity index : 16

Number of dynamic objects : 15

Bed channel count : 1 channel

Bed channel configuration : LFE



Text #1

ID : 4

Format : UTF-8

Codec ID : S_TEXT/UTF8

Codec ID/Info : UTF-8 Plain Text

Duration : 2 h 11 min

Bit rate : 1 b/s

Count of elements : 44

Stream size : 1.71 KiB (0%)

Title : Forced

Language : Russian

Default : Yes

Forced : Yes



Text #2

ID : 5

Format : UTF-8

Codec ID : S_TEXT/UTF8

Codec ID/Info : UTF-8 Plain Text

Duration : 2 h 12 min

Bit rate : 67 b/s

Count of elements : 1282

Stream size : 65.7 KiB (0%)

Title : Full

Language : Russian

Default : No

Forced : No



Text #3

ID : 6

Format : UTF-8

Codec ID : S_TEXT/UTF8

Codec ID/Info : UTF-8 Plain Text

Duration : 2 h 13 min

Bit rate : 46 b/s

Count of elements : 1630

Stream size : 45.7 KiB (0%)

Title : SDH

Language : English

Default : No

Forced : NoСкриншоты

Discussion

Comments 0

Post Your Comment

Files in this torrent

FILENAMESIZE
Black.Widow.2021.1080p.WEB-DL.Line.mkv7.7 GB

Alternative Torrents for 'Black Widow Line'.

TORRENT NAMEADDEDSIZESEEDSPEERSHEALTH
7/11/20217.7 GB596