Space Jam A New Legacy 2021 2160p HMAX WEB-DL DDP5.1 Atmos DV MP4 X265-FLUX

Torrent Details


Space Jam a New Legacy 2021 2160p HMAX WEB-DL DDP5.1 Atmos DV MP4 x265-FLUX

NAME
Space Jam a New Legacy 2021 2160p HMAX WEB-DL DDP5.1 Atmos DV MP4 x265-FLUX.torrent
CATEGORY
Movies
INFOHASH
1531191b066581d3c07960ce314bf64323e1e46f
SIZE
15 GB in 2 files
ADDED
Uploaded on 17-07-2021 by our crawler pet called "Spidey".
SWARM
1 seeders & 7 peers
RATING
No votes yet.

Please login to vote for this torrent.


Description

帖子完整标题:空中大灌篮:新传奇 Space.Jam.a.New.Legacy.2021.2160p.HMAX.WEB-DL.DDP5.1.Atmos.DV.MP4.x265-FLUX 15.00GB  故事讲述勒布朗与他的小儿子多姆被人工智能困在了“华纳兄弟电影宇宙”虚拟空间,为了能安全回家,他必须率兔八哥、罗拉兔和那些不守规矩的乐一通卡通,战胜一支全明星篮球队。这场对决是勒布朗人生的最大挑战,也将重新定义他与儿子间的关系,并让勒布朗领悟到“做自己”的真谛;乐一通的小伙伴们则要打破陈规,超常发挥自己的独特技能,令勒布朗都刮目相看。然而他们面对的,是一群前所未见、所向披靡的人工智能强化型对手“末日狂徒队”,勒布朗和乐一通们真的能成功击败他们吗?Video ID : 1 Format : HEVC Format/Info : High Efficiency Video Coding Format profile : Main [email protected]@Main HDR format : Dolby Vision, Version 1.0, dvhe.05.06, BL+RPU Codec ID : dvhe Codec ID/Info : High Efficiency Video Coding with Dolby Vision Duration : 1 h 55 min Bit rate : 17.8 Mb/s Width : 3 840 pixels Height : 2 160 pixels Display aspect ratio : 16:9 Frame rate mode : Constant Frame rate : 23.976 (24000/1001/189150) FPS Color space : YUV Chroma subsampling : 4:2:0 Bit depth : 10 bits Bits/(Pixel*Frame) : 0.090 Stream size : 14.4 GiB (96%) Writing library : x265 3.4hy:[Linux][GCC 7.5.0][64 bit] 10bit Encoding settings : cpuid=1111039 / frame-threads=6 / no-wpp / no-pmode / no-pme / no-psnr / no-ssim / log-level=2 / input-csp=1 / input-res=3840x2160 / interlace=0 / total-frames=0 / level-idc=0 / high-tier=1 / uhd-bd=0 / ref=4 / no-allow-non-conformance / repeat-headers / annexb / aud / hrd / info / hash=0 / no-temporal-layers / no-open-gop / min-keyint=96 / keyint=96 / gop-lookahead=0 / bframes=4 / b-adapt=2 / b-pyramid / bframe-bias=0 / rc-lookahead=25 / lookahead-slices=4 / scenecut=40 / hist-scenecut=0 / radl=0 / no-splice / no-intra-refresh / ctu=64 / min-cu-size=8 / rect / no-amp / max-tu-size=32 / tu-inter-depth=1 / tu-intra-depth=1 / limit-tu=0 / rdoq-level=2 / dynamic-rd=0.00 / no-ssim-rd / signhide / no-tskip / nr-intra=0 / nr-inter=0 / no-constrained-intra / strong-intra-smoothing / max-merge=3 / limit-refs=3 / limit-modes / me=3 / subme=3 / merange=57 / temporal-mvp / no-frame-dup / no-hme / weightp / no-weightb / no-analyze-src-pics / deblock=0:0 / sao / no-sao-non-deblock / rd=4 / selective-sao=4 / no-early-skip / rskip / no-fast-intra / no-tskip-fast / no-cu-lossless / no-b-intra / no-splitrd-skip / rdpenalty=0 / psy-rd=2.00 / psy-rdoq=1.00 / no-rd-refine / no-lossless / cbqpoffs=0 / crqpoffs=3 / rc=abr / bitrate=18000 / qcomp=0.60 / qpstep=4 / stats-write=0 / stats-read=2 / cplxblur=20.0 / qblur=0.5 / vbv-maxrate=24500 / vbv-bufsize=24500 / vbv-init=0.6 / vbv-end=0.6 / vbv-end-fr-adj=0.0 / ipratio=1.40 / pbratio=1.30 / aq-mode=2 / aq-strength=1.00 / cutree / zone-count=0 / no-strict-cbr / qg-size=32 / no-rc-grain / qpmax=69 / qpmin=0 / no-const-vbv / sar=1 / overscan=0 / videoformat=5 / range=1 / colorprim=2 / transfer=2 / colormatrix=2 / chromaloc=0 / display-window=0 / cll=0,0 / min-luma=0 / max-luma=1023 / log2-max-poc-lsb=8 / vui-timing-info / vui-hrd-info / no-concatenation / slices=1 / no-opt-qp-pps / no-opt-ref-list-length-pps / no-multi-pass-opt-rps / scenecut-bias=0.05 / hist-threshold=0.01 / no-opt-cu-delta-qp / no-aq-motion / no-hdr10 / no-hdr10-opt / no-dhdr10-opt / no-idr-recovery-sei / analysis-reuse-level=0 / analysis-save-reuse-level=0 / analysis-load-reuse-level=0 / scale-factor=0 / refine-intra=0 / refine-inter=0 / refine-mv=1 / refine-ctu-distortion=0 / no-limit-sao / ctu-info=0 / no-lowpass-dct / refine-analysis-type=0 / copy-pic=1 / max-ausize-factor=1.0 / no-dynamic-refine / no-single-sei / no-hevc-aq / no-svt / no-field / qp-adaptation-range=1.00 / no-scenecut-aware-qpconformance-window-offsets / right=0 / bottom=0 / decoder-max-rate=0 Default : Yes Alternate group : 1 Encoded date : UTC 2021-07-16 07:04:56 Tagged date : UTC 2021-07-16 07:09:11 Color range : Full Codec configuration box : hvcC+dvcC Audio ID : 2 Format : E-AC-3 JOC Format/Info : Enhanced AC-3 with Joint Object Coding Commercial name : Dolby Digital Plus with Dolby Atmos Codec ID : ec-3 Duration : 1 h 55 min Bit rate mode : Constant Bit rate : 768 kb/s Maximum bit rate : 811 kb/s Channel(s) : 6 channels Channel layout : L R C LFE Ls Rs Sampling rate : 48.0 kHz Frame rate : 31.250 FPS (1536 SPF) Compression mode : Lossy Stream size : 634 MiB (4%) Title : English Language : English Service kind : Complete Main Encoded date : UTC 2021-07-16 07:09:10 Tagged date : UTC 2021-07-16 07:09:11 Complexity index : Not present / 16 Number of dynamic objects : 15 Bed channel count : 1 channel Bed channel configuration : LFE Text ID : 3 Format : Timed Text Codec ID : tx3g Duration : 1 h 55 min Bit rate mode : Variable Bit rate : 114 b/s Stream size : 96.5 KiB (0%) Title : English Language : English Forced : No Encoded date : UTC 2021-07-16 07:09:10 Tagged date : UTC 2021-07-16 07:09:11

Discussion

Comments 0

Post Your Comment

Files in this torrent

FILENAMESIZE
RARBG.txt31 B
Space.Jam.A.New.Legacy.2021.2160p.HMAX.WEB-DL.DDP.5.1.Atmos.DV.H.265-FLUX.mp415 GB

Alternative Torrents for 'Space Jam Legacy HMAX DDP. Atmos DV FLUX'.

There are no alternative torrents found.