Space Jam A New Legacy 2021 1080p WEB-DL

Torrent Details


Space Jam a New Legacy 2021 1080p WEB<span style=color:#fc9c6d>-DL</span>

NAME
Space Jam a New Legacy 2021 1080p WEB-DL.torrent
CATEGORY
Movies
INFOHASH
03597bc3e43f9a03a0012cd1c802ac9785c50c58
SIZE
7.5 GB in 1 file
ADDED
Uploaded on 18-07-2021 by our crawler pet called "Spidey".
SWARM
26 seeders & 2 peers
RATING
No votes yet.

Please login to vote for this torrent.


Description

Год выпуска: 2021

Страна / студия: США, Warner Bros.Warner Animation Group, Spring, Hill Entertainment

Жанр: Мультфильм, фэнтези, комедия, приключения, семейный, спорт, полнометражный

Продолжительность: 01:55:28

Перевод: Дублированный (Line)



Режиссер: Малкольм Д. Ли

В ролях: Леброн Джеймс, Дон Чидл, Седрик Джо, Крис Дэвис, Сонекуа Мартин-Грин, Сейэйр Дж Райт, Харпер Ли Александр, Зоша Рокемор, Стивен Канколе, Джалин Холл



О фильме: Суперзвезда баскетбола Леброн Джеймс вместе с маленьким сыном попадает в ловушку виртуальной реальности из-за недоброжелательного искусственного интеллекта. Чтобы выбраться на свободу, Леброн вместе с командой мультяшных персонажей должен выстоять на баскетбольной «дуэли» против цифровых двойников великих чемпионов. Продолжение баскетбольной фэнтези-комедии 1996 года.









Релиз от: KinoPub

Качество: WEB-DL 1080p

Видео: MPEG-4 AVC, 8250 Кбит/с, 1920x1080

Аудио 1: AC3, 2 ch, 256 Кбит/с | | Tnx.KinoPub

Аудио 2: E-AC3 JOC, 6 ch, 768 Кбит/с |

Субтитры: Английские

Скриншоты ИнфоОбщее

Уникальный идентификатор : 2608855351580424387678738408882565857 (0x1F6727FE8668A31BBE58B69FE07F2E1)

Полное имя : E:DownloadsSpace.Jam.a.New.Legacy.2021.1080p.WEB-DL.mkv

Формат : Matroska

Версия формата : Version 4

Размер файла : 7,47 Гбайт

Продолжительность : 1 ч. 55 м.

Режим общего битрейта : Переменный

Общий поток : 9 261 Кбит/сек

Название фильма : Space.Jam.a.New.Legacy.2021.1080p.WEB-DL

Дата кодирования : UTC 2021-07-18 19:39:16

Программа кодирования : mkvmerge v59.0.0 ('Shining Star') 64-bit

Библиотека кодирования : libebml v1.4.2 + libmatroska v1.6.4



Видео

Идентификатор : 1

Формат : AVC

Формат/Информация : Advanced Video Codec

Профиль формата : [email protected]

Настройки формата : CABAC / 4 Ref Frames

Параметр CABAC формата : Да

Параметр RefFrames формата : 4 кадра

Идентификатор кодека : V_MPEG4/ISO/AVC

Продолжительность : 1 ч. 55 м.

Вид битрейта : Переменный

Битрейт : 8 250 Кбит/сек

Максимальный битрейт : 12,4 Мбит/сек

Ширина : 1 920 пикселей

Высота : 1 080 пикселей

Соотношение сторон : 16:9

Режим частоты кадров : Постоянный

Частота кадров : 23,976 (24000/1001) кадра/сек

Цветовое пространство : YUV

Субдискретизация насыщенности : 4:2:0

Битовая глубина : 8 бит

Тип развёртки : Прогрессивная

Бит/(Пиксели*Кадры) : 0.166

Размер потока : 6,64 Гбайт (89%)

Библиотека кодирования : x264 core 157 r2965 861cec4

Настройки программы : cabac=1 / ref=4 / deblock=1:0:0 / analyse=0x3:0x113 / me=hex / subme=7 / psy=1 / psy_rd=1.00:0.00 / mixed_ref=1 / me_range=16 / chroma_me=1 / trellis=1 / 8x8dct=1 / cqm=0 / deadzone=21,11 / fast_pskip=1 / chroma_qp_offset=-2 / threads=34 / lookahead_threads=5 / sliced_threads=0 / nr=0 / decimate=1 / interlaced=0 / bluray_compat=0 / constrained_intra=0 / bframes=3 / b_pyramid=2 / b_adapt=1 / b_bias=0 / direct=1 / weightb=1 / open_gop=0 / weightp=2 / keyint=96 / keyint_min=96 / scenecut=40 / intra_refresh=0 / rc_lookahead=40 / rc=2pass / mbtree=1 / bitrate=8250 / ratetol=1.0 / qcomp=0.60 / qpmin=0 / qpmax=69 / qpstep=4 / cplxblur=20.0 / qblur=0.5 / vbv_maxrate=12375 / vbv_bufsize=6187 / nal_hrd=vbr / filler=0 / ip_ratio=1.40 / aq=1:1.00

Default : Да

Forced : Нет

Цветовой диапазон : Limited

Основные цвета : BT.709

Характеристики трансфера : BT.709

Коэффициенты матрицы : BT.709



Аудио #1

Идентификатор : 2

Формат : AC-3

Формат/Информация : Audio Coding 3

Коммерческое название : Dolby Digital

Идентификатор кодека : A_AC3

Продолжительность : 1 ч. 55 м.

Вид битрейта : Постоянный

Битрейт : 256 Кбит/сек

Каналы : 2 канала

Channel layout : L R

Частота : 48,0 КГц

Частота кадров : 31,250 кадров/сек (1536 SPF)

Метод сжатия : С потерями

Размер потока : 211 Мбайт (3%)

Заголовок : [DUB] Line | KinoPub

Язык : Russian

Service kind : Complete Main

Default : Да

Forced : Нет



Аудио #2

Идентификатор : 3

Формат : E-AC-3 JOC

Формат/Информация : Enhanced AC-3 with Joint Object Coding

Коммерческое название : Dolby Digital Plus with Dolby Atmos

Идентификатор кодека : A_EAC3

Продолжительность : 1 ч. 55 м.

Вид битрейта : Постоянный

Битрейт : 768 Кбит/сек

Каналы : 6 каналов

Channel layout : L R C LFE Ls Rs

Частота : 48,0 КГц

Частота кадров : 31,250 кадров/сек (1536 SPF)

Метод сжатия : С потерями

Размер потока : 634 Мбайт (8%)

Заголовок : English

Язык : English

Service kind : Complete Main

Default : Нет

Forced : Нет

Complexity index : 16

Number of dynamic objects : 15

Bed channel count : 1 канал

Bed channel configuration : LFE



Текст #1

Идентификатор : 4

Формат : UTF-8

Идентификатор кодека : S_TEXT/UTF8

Идентификатор кодека/Информация : UTF-8 Plain Text

Продолжительность : 1 ч. 55 м.

Битрейт : 67 бит/сек

Count of elements : 2266

Размер потока : 57,0 Кбайт (0%)

Заголовок : English

Язык : English

Default : Нет

Forced : Нет



Текст #2

Идентификатор : 5

Формат : UTF-8

Идентификатор кодека : S_TEXT/UTF8

Идентификатор кодека/Информация : UTF-8 Plain Text

Продолжительность : 1 ч. 55 м.

Битрейт : 89 бит/сек

Count of elements : 2654

Размер потока : 75,1 Кбайт (0%)

Заголовок : English [SDH]

Язык : English

Default : Нет

Forced : Нет

Discussion

Comments 0

Post Your Comment

Files in this torrent

FILENAMESIZE
Space.Jam.a.New.Legacy.2021.1080p.WEB-DL.mkv7.5 GB

Alternative Torrents for 'Space Jam Legacy'.

TORRENT NAMEADDEDSIZESEEDSPEERSHEALTH
7/16/20212.1 GB2341429
7/16/20211 GB1174167
7/16/20211.4 GB27447
7/16/2021797 MB27046
8/3/20215.2 GB22722
9/24/202113 GB15617
9/25/202118.6 GB14445
7/16/20212.2 GB13857
9/24/20211.4 GB1247
7/16/20211.4 GB868
7/19/20213.6 GB852
7/16/20217.3 GB6318
8/12/20217.6 GB583
7/16/202115 GB5723
9/24/2021797 MB385