The Rainbow Jacket 1954 1080p BluRay X264-RUSTED[rarbg]

Torrent Details


The Rainbow Jacket 1954 1080p BluRay x264-RUSTED[rarbg]

NAME
The Rainbow Jacket 1954 1080p BluRay x264-RUSTED[rarbg].torrent
CATEGORY
Movies
INFOHASH
21cb416430f63359b40d5723a9c5f77cd6107eae
SIZE
7 GB in 5 files
ADDED
Uploaded on 23-07-2021 by our crawler pet called "Spidey".
SWARM
0 seeders & 1 peers
RATING
No votes yet.

Please login to vote for this torrent.


Description

帖子完整标题:彩虹夹克 The.Rainbow.Jacket.1954.1080p.BluRay.x264-RUSTED 6.97GB  暂无相关剧情介绍Video ID : 1 Format : AVC Format/Info : Advanced Video Codec Format profile : [email protected] Format settings : CABAC / 5 Ref Frames Format settings, CABAC : Yes Format settings, Reference frames : 5 frames Codec ID : V_MPEG4/ISO/AVC Duration : 1 h 40 min Bit rate : 9 557 kb/s Width : 1 418 pixels Height : 1 080 pixels Display aspect ratio : 4:3 Frame rate mode : Constant Frame rate : 24.000 FPS Color space : YUV Chroma subsampling : 4:2:0 Bit depth : 8 bits Scan type : Progressive Bits/(Pixel*Frame) : 0.260 Stream size : 6.73 GiB (96%) Writing library : x264 core 164 r3065 ae03d92 Encoding settings : cabac=1 / ref=5 / deblock=1:-3:-3 / analyse=0x3:0x133 / me=umh / subme=9 / psy=1 / psy_rd=1.00:0.00 / mixed_ref=1 / me_range=16 / chroma_me=1 / trellis=2 / 8x8dct=1 / cqm=0 / deadzone=21,11 / fast_pskip=0 / chroma_qp_offset=-2 / threads=24 / lookahead_threads=2 / sliced_threads=0 / nr=0 / decimate=0 / interlaced=0 / bluray_compat=0 / constrained_intra=0 / bframes=3 / b_pyramid=2 / b_adapt=2 / b_bias=0 / direct=3 / weightb=1 / open_gop=0 / weightp=2 / keyint=250 / keyint_min=24 / scenecut=40 / intra_refresh=0 / rc=crf / mbtree=0 / crf=17.0 / qcomp=0.60 / qpmin=0 / qpmax=69 / qpstep=4 / ip_ratio=1.40 / pb_ratio=1.30 / aq=3:0.70 Language : English Default : Yes Forced : No Color range : Limited Matrix coefficients : BT.709 Audio ID : 2 Format : FLAC Format/Info : Free Lossless Audio Codec Codec ID : A_FLAC Duration : 1 h 40 min Bit rate mode : Variable Bit rate : 329 kb/s Channel(s) : 2 channels Channel layout : L R Sampling rate : 48.0 kHz Frame rate : 11.719 FPS (4096 SPF) Bit depth : 16 bits Compression mode : Lossless Stream size : 237 MiB (3%) Writing library : libFLAC 1.2.1 (UTC 2007-09-17) Language : English Default : Yes Forced : No Text #1 ID : 3 Format : UTF-8 Codec ID : S_TEXT/UTF8 Codec ID/Info : UTF-8 Plain Text Duration : 1 h 37 min Bit rate : 89 b/s Count of elements : 2366 Stream size : 64.0 KiB (0%) Title : English (SRT) Language : English Default : No Forced : No Text #2 ID : 4 Format : UTF-8 Codec ID : S_TEXT/UTF8 Codec ID/Info : UTF-8 Plain Text Duration : 1 h 40 min Bit rate : 91 b/s Count of elements : 2505 Stream size : 67.3 KiB (0%) Title : English (SRT SDH) Language : English Default : No Forced : No Text #3 ID : 5 Format : PGS Muxing mode : zlib Codec ID : S_HDMV/PGS Codec ID/Info : Picture based subtitle format used on BDs/HD-DVDs Duration : 1 h 40 min Bit rate : 51.8 kb/s Count of elements : 2882 Stream size : 37.1 MiB (1%) Title : English (SDH) Language : English Default : No Forced : No Menu 00:00:00.000 : Chapter 01 00:10:09.625 : Chapter 02 00:18:36.042 : Chapter 03 00:24:13.583 : Chapter 04 00:33:14.750 : Chapter 05 00:43:36.583 : Chapter 06 00:49:26.458 : Chapter 07 00:57:56.542 : Chapter 08 01:06:21.708 : Chapter 09 01:13:36.958 : Chapter 10 01:21:17.625 : Chapter 11 01:28:07.917 : Chapter 12

Discussion

Comments 0

Post Your Comment

Files in this torrent

FILENAMESIZE
RARBG.txt30 B
RARBG_DO_NOT_MIRROR.exe99 B
rusted-the.rainbow.jacket.1954.1080p.bluray.x264.jpg118.2 KB
rusted-the.rainbow.jacket.1954.1080p.bluray.x264.mkv7 GB
rusted-the.rainbow.jacket.1954.1080p.bluray.x264.nfo9.2 KB

Alternative Torrents for 'Rainbow Jacket BluRay RUSTED'.

TORRENT NAMEADDEDSIZESEEDSPEERSHEALTH
7/23/20217 GB01
7/23/20213.1 GB00