Space Jam A New Legacy 2021 WEB-DL 1080p SeleZen

Torrent Details


Space Jam A New Legacy 2021 WEB-DL 1080p<span style=color:#fc9c6d> seleZen</span>

NAME
Space Jam A New Legacy 2021 WEB-DL 1080p seleZen.torrent
CATEGORY
Movies
INFOHASH
e51718979aef642eb8e563eb733d52807cfb226f
SIZE
7.6 GB in 1 file
ADDED
Uploaded on 12-08-2021 by our crawler pet called "Spidey".
SWARM
57 seeders & 3 peers
RATING
No votes yet.

Please login to vote for this torrent.


Description

Информация о фильме

Название: Космический джем: Новое поколение

Оригинальное название: Space Jam: A New Legacy

Год выхода: 2021

Жанр: Комедия, фэнтези, анимационный, приключения, семейный, спорт

Режиссер: Малкольм Д. Ли

В ролях: Леброн Джеймс, Алекс Уэрта, Дон Чидл, Сонекуа Мартин-Грин, Кейар Джей Райт, Мартин Клебба, Ксоша Рокьюмор, Крис Дэвис, Скайлер Библ, Уитни Колмен, Питер Корнелл, Хассан Сэд, Деррик Гилберт, Дж. Лэйн Хиллман, Эрик Шекелфорд, Кассандра Старр, Харрисон Уайт







О фильме: Суперзвезда баскетбола Леброн Джеймс вместе с маленьким сыном попадает в ловушку виртуальной реальности из-за недоброжелательного искусственного интеллекта. Чтобы выбраться на свободу, Леброн вместе с командой мультяшных персонажей должен выстоять на баскетбольной «дуэли» против цифровых двойников великих чемпионов. Продолжение баскетбольной фэнтези-комедии 1996 года. Сиквел фильма "Космический джем" (1996). Баскетболист Леброн Джеймс вместе с Багзом Банни попадают в ловушку виртуального пространства из-за мошеннического алгоритма Al-G Rhythm. Леброну предстоит разгадать план таинственного злодея и принять участие в эпическом баскетбольном матче, где его противниками станут цифровые версии суперзвезд баскетбола.



Страна: США

Студия: Warner Bros.Warner Animation Group, Spring, Hill Entertainment

Продолжительность: 01:55:24

Перевод: Дублированный | Кинопоиск HD



Качество: WEB-DL 1080p

Видео: MPEG-4 AVC, 1920x1080, 8238 Кbit/s, 23.976 fps

Аудио #01: 48 kHz, AC3, 5.1, 448 Kbps | Дублированный | RUS |

Аудио #02: 48 kHz, E-AC3+Atmos, 5.1, 768 Kbps | Оригинал | ENG |

Субтитры: Русские (Forced, full), английские







MIGeneral

Unique ID : 123330300590600258872910918430782369535 (0x5CC88D490A91C0C1E62720402003AEFF)

Complete name : F:VideoSpace.Jam.A.New.Legacy.2021.WEB-DL.1080p.seleZen.mkv

Format : Matroska

Format version : Version 4

File size : 7.62 GiB

Duration : 1 h 55 min

Overall bit rate mode : Variable

Overall bit rate : 9 457 kb/s

Movie name : Space Jam A New Legacy 2021 from seleZen

Encoded date : UTC 2021-08-12 17:26:43

Writing application : mkvmerge v59.0.0 ('Shining Star') 64-bit

Writing library : libebml v1.4.2 + libmatroska v1.6.4

Attachments : poster.jpg



Video

ID : 1

Format : AVC

Format/Info : Advanced Video Codec

Format profile : [email protected]

Format settings : CABAC / 4 Ref Frames

Format settings, CABAC : Yes

Format settings, Reference : 4 frames

Codec ID : V_MPEG4/ISO/AVC

Duration : 1 h 55 min

Bit rate mode : Variable

Bit rate : 8 238 kb/s

Maximum bit rate : 12.4 Mb/s

Width : 1 920 pixels

Height : 1 080 pixels

Display aspect ratio : 16:9

Frame rate mode : Constant

Frame rate : 23.976 (24000/1001) FPS

Color space : YUV

Chroma subsampling : 4:2:0

Bit depth : 8 bits

Scan type : Progressive

Bits/(Pixel*Frame) : 0.166

Stream size : 6.64 GiB (87%)

Language : English

Default : Yes

Forced : No

Color range : Limited

Color primaries : BT.709

Transfer characteristics : BT.709

Matrix coefficients : BT.709



Audio #1

ID : 2

Format : AC-3

Format/Info : Audio Coding 3

Commercial name : Dolby Digital

Codec ID : A_AC3

Duration : 1 h 55 min

Bit rate mode : Constant

Bit rate : 448 kb/s

Channel(s) : 6 channels

Channel layout : L R C LFE Ls Rs

Sampling rate : 48.0 kHz

Frame rate : 31.250 FPS (1536 SPF)

Compression mode : Lossy

Delay relative to video : 28 ms

Stream size : 370 MiB (5%)

Title : Dub

Language : Russian

Service kind : Complete Main

Default : Yes

Forced : Yes



Audio #2

ID : 3

Format : E-AC-3 JOC

Format/Info : Enhanced AC-3 with Joint Object Coding

Commercial name : Dolby Digital Plus with Dolby Atmos

Codec ID : A_EAC3

Duration : 1 h 55 min

Bit rate mode : Constant

Bit rate : 768 kb/s

Channel(s) : 6 channels

Channel layout : L R C LFE Ls Rs

Sampling rate : 48.0 kHz

Frame rate : 31.250 FPS (1536 SPF)

Compression mode : Lossy

Delay relative to video : 28 ms

Stream size : 634 MiB (8%)

Title : Original

Language : English

Service kind : Complete Main

Default : No

Forced : No

Complexity index : 16

Number of dynamic objects : 15

Bed channel count : 1 channel

Bed channel configuration : LFE



Text #1

ID : 4

Format : UTF-8

Codec ID : S_TEXT/UTF8

Codec ID/Info : UTF-8 Plain Text

Duration : 1 h 54 min

Bit rate : 5 b/s

Count of elements : 122

Stream size : 4.49 KiB (0%)

Title : Forced

Language : Russian

Default : Yes

Forced : Yes



Text #2

ID : 5

Format : UTF-8

Codec ID : S_TEXT/UTF8

Codec ID/Info : UTF-8 Plain Text

Duration : 1 h 55 min

Bit rate : 117 b/s

Count of elements : 1963

Stream size : 98.9 KiB (0%)

Title : Full

Language : Russian

Default : No

Forced : No



Text #3

ID : 6

Format : UTF-8

Codec ID : S_TEXT/UTF8

Codec ID/Info : UTF-8 Plain Text

Duration : 1 h 55 min

Bit rate : 66 b/s

Count of elements : 2113

Stream size : 56.4 KiB (0%)

Title : Full

Language : English

Default : No

Forced : No



Text #4

ID : 7

Format : UTF-8

Codec ID : S_TEXT/UTF8

Codec ID/Info : UTF-8 Plain Text

Duration : 1 h 55 min

Bit rate : 88 b/s

Count of elements : 2655

Stream size : 74.5 KiB (0%)

Title : SDH

Language : English

Default : No

Forced : No



Menu

00:00:00.000 : Scene 1

00:07:57.936 : Scene 2

00:14:23.822 : Scene 3

00:20:55.213 : Scene 4

00:25:42.584 : Scene 5

00:32:31.493 : Scene 6

00:39:20.944 : Scene 7

00:45:45.620 : Scene 8

00:55:16.316 : Scene 9

01:01:15.800 : Scene 10

01:08:33.697 : Scene 11

01:14:44.234 : Scene 12

01:21:24.592 : Scene 13

01:25:31.089 : Scene 14

01:31:54.222 : Scene 15

01:46:11.496 : Scene 16



Релиз: Присоединяйся к:



Discussion

Comments 0

Post Your Comment

Files in this torrent

FILENAMESIZE
Space.Jam.A.New.Legacy.2021.WEB-DL.1080p.seleZen.mkv7.6 GB

Alternative Torrents for 'Space Jam Legacy'.

TORRENT NAMEADDEDSIZESEEDSPEERSHEALTH
7/16/20212.1 GB1716285
7/16/20211 GB791113
7/16/20211.4 GB23136
7/16/2021797 MB22630
8/3/20215.2 GB18314
10/1/20212.1 GB16327
10/1/20211 GB13532
7/16/20212.2 GB13345
7/16/20211.4 GB6313
8/12/20217.6 GB573
7/19/20213.6 GB542
10/9/20212.2 GB497
7/16/20217.3 GB4610
9/24/20211.4 GB435
9/24/202113 GB416