Warning! Do NOT Download Without a VPN!
Your IP Address is .   Location is United States
Your Internet Provider and Government can track your download activities! Hide your IP ADDRESS with a VPN!
We strongly recommend using a VPN service to anonymize your torrent downloads. It's FREE!
START YOUR FREE TRIAL NOW!

(Avengers Endgame) 2019 HybridRip 1080p

Torrent Details

(Avengers Endgame) 2019 HybridRip 1080p

NAME
(Avengers Endgame) 2019 HybridRip 1080p.torrent
CATEGORY
Movies
INFOHASH
77070f404672923d3d2e095b0785c70902a8754b
SIZE
17.3 GB in 0 files
ADDED
Uploaded on 04-11-2019 by our crawler pet called "Spidey".
SWARM
0 seeders & 0 peers
RATING
No votes yet.

Please login to vote for this torrent.


Description

Название: Мстители: Финал

Оригинальное название: Avengers: Endgame

Год выхода: 2019



Страна: США, Великобритания, Канада

Студия: Marvel Studios

Продолжительность: 03:01:47

Жанр: фантастика, боевик, приключения



Режиссер: Энтони Руссо, Джо Руссо

В ролях: Роберт Дауни мл., Крис Эванс, Марк Руффало, Крис Хемсворт, Скарлетт Йоханссон, Джереми Реннер, Дон Чидл, Пол Радд, Бри Ларсон, Карен Гиллан, ...



Перевод:

- Профессиональный (дублированный) Невафильм

- Субтитры



О фильме: Оставшиеся в живых члены команды Мстителей и их союзники должны разработать новый план, который поможет противостоять разрушительным действиям могущественного титана Таноса. После наиболее масштабной и трагической битвы в истории они не могут допустить ошибку…













Кодек: x264

Качество: HybridRip 1080p

Видео: 1920x1080, 12000 kbps, 23,976 fps

Аудио #1: AC-3, 6 ch, 640 kbps (Rus) - Dub Невафильм (handmade by il2003)

Аудио #2: AC-3, 6 ch, 384 kbps (Rus) - Dub Невафильм (iTunes)

Аудио #3: AC-3, 6 ch, 640 kbps (Eng)

Субтитры: русские (Forced, Full), английские



Дополнительная информация

- За исходник благодарим сайт TeamHD и maksnew

- За создание и работу с гибридом огромная благодарность random0 и следующим спонсорам: unitedbits, MoonFever, bma72, johnredwood, axm136, Mister_Yarik, akaClient, alexeycezar, Saprofit

- Спасибо il2003 за работу над дорожкой дубляжа и также благодарим спонсоров: alexeycezar, ikstu, CallistyaniN, il2003, Romanych_777, aleks0614,ivan_serkov, ArtemPoter, gadkiyslav, tankmaster, bma72, axm136, vovyanskiy, tametun, zlodei24, thunder, Joky13, Vasek777, krustyburger, Nasty_Day, october2

MediaInfo

x264 [info]: frame I:1901 Avg QP:11.86 size:313576

x264 [info]: frame P:57780 Avg QP:14.55 size:133283

x264 [info]: frame B:201839 Avg QP:15.99 size: 39902

x264 [info]: consecutive B-frames: 3.3% 3.1% 7.4% 15.8% 13.4% 40.5% 8.5% 3.2% 4.6% 0.0% 0.1% 0.1% 0.2%



Общее

Уникальный идентификатор : 223931583467127708302270543711981784938 (0xA877A77A4364247F83E657019A5BCF6A)

Полное имя : Мстители Финал (Avengers Endgame) 2019 HybridRip 1080p.mkv

Формат : Matroska

Версия формата : Version 2

Размер файла : 17,3 Гбайт

Продолжительность : 3 ч. 1 м.

Общий поток : 13,7 Мбит/сек

Дата кодирования : UTC 2019-11-03 11:10:41

Программа кодирования : mkvmerge v4.0.0 ('The Stars were mine') сборка от Jun 6 2010 16:18:42

Библиотека кодирования : libebml v1.0.0 + libmatroska v1.0.0



Видео

Идентификатор : 1

Формат : AVC

Формат/Информация : Advanced Video Codec

Профиль формата : [email protected]

Параметр CABAC формата : Да

Параметр ReFrames формата : 4 кадра

Идентификатор кодека : V_MPEG4/ISO/AVC

Продолжительность : 3 ч. 1 м.

Битрейт : 12,0 Мбит/сек

Ширина : 1920 пикселей

Высота : 1080 пикселей

Соотношение сторон : 16:9

Режим частоты кадров : Постоянный

Частота кадров : 23,976 (24000/1001) кадра/сек

Цветовое пространство : YUV

Субдискретизация насыщенности : 4:2:0

Битовая глубина : 8 бит

Тип развёртки : Прогрессивная

Бит/(Пиксели*Кадры) : 0.241

Размер потока : 14,9 Гбайт (86%)

Библиотека кодирования : x264 core 146 r2538 121396c

Настройки программы : cabac=1 / ref=4 / deblock=1:-2:-2 / analyse=0x3:0x133 / me=umh / subme=11 / psy=1 / psy_rd=1.00:0.00 / mixed_ref=1 / me_range=32 / chroma_me=1 / trellis=2 / 8x8dct=1 / cqm=0 / deadzone=21,11 / fast_pskip=0 / chroma_qp_offset=-2 / threads=12 / lookahead_threads=2 / sliced_threads=0 / nr=0 / decimate=0 / interlaced=0 / bluray_compat=0 / constrained_intra=0 / bframes=12 / b_pyramid=2 / b_adapt=2 / b_bias=0 / direct=3 / weightb=1 / open_gop=0 / weightp=2 / keyint=240 / keyint_min=23 / scenecut=40 / intra_refresh=0 / rc=2pass / mbtree=0 / bitrate=12000 / ratetol=1.0 / qcomp=0.60 / qpmin=0 / qpmax=69 / qpstep=4 / cplxblur=20.0 / qblur=0.5 / ip_ratio=1.40 / pb_ratio=1.30 / aq=3:0.80

Язык : English

Default : Нет

Forced : Нет



Аудио #1

Идентификатор : 2

Формат : AC-3

Формат/Информация : Audio Coding 3

Расширение режима : CM (complete main)

Параметр Endianness формата : Big

Идентификатор кодека : A_AC3

Продолжительность : 3 ч. 1 м.

Вид битрейта : Постоянный

Битрейт : 640 Кбит/сек

Каналы : 6 каналов

Расположение каналов : Front: L C R, Side: L R, LFE

Частота : 48,0 КГц

Частота кадров : 31,250 кадров/сек (1536 spf)

Метод сжатия : С потерями

Размер потока : 832 Мбайт (5%)

Заголовок : Dub Невафильм (handmade by il2003)

Язык : Russian

Default : Нет

Forced : Нет



Аудио #2

Идентификатор : 3

Формат : AC-3

Формат/Информация : Audio Coding 3

Расширение режима : CM (complete main)

Параметр Endianness формата : Big

Идентификатор кодека : A_AC3

Продолжительность : 3 ч. 1 м.

Вид битрейта : Постоянный

Битрейт : 384 Кбит/сек

Каналы : 6 каналов

Расположение каналов : Front: L C R, Side: L R, LFE

Частота : 48,0 КГц

Частота кадров : 31,250 кадров/сек (1536 spf)

Метод сжатия : С потерями

Размер потока : 499 Мбайт (3%)

Заголовок : Dub Невафильм (iTunes)

Язык : Russian

Default : Нет

Forced : Нет



Аудио #3

Идентификатор : 4

Формат : AC-3

Формат/Информация : Audio Coding 3

Расширение режима : CM (complete main)

Параметр Endianness формата : Big

Идентификатор кодека : A_AC3

Продолжительность : 3 ч. 1 м.

Вид битрейта : Постоянный

Битрейт : 640 Кбит/сек

Каналы : 6 каналов

Расположение каналов : Front: L C R, Side: L R, LFE

Частота : 48,0 КГц

Частота кадров : 31,250 кадров/сек (1536 spf)

Метод сжатия : С потерями

Размер потока : 832 Мбайт (5%)

Язык : English

Default : Нет

Forced : Нет



Текст #1

Идентификатор : 5

Формат : UTF-8

Идентификатор кодека : S_TEXT/UTF8

Идентификатор кодека/Информация : UTF-8 Plain Text

Заголовок : Forced

Язык : Russian

Default : Нет

Forced : Нет



Текст #2

Идентификатор : 6

Формат : UTF-8

Идентификатор кодека : S_TEXT/UTF8

Идентификатор кодека/Информация : UTF-8 Plain Text

Заголовок : iTunes

Язык : Russian

Default : Нет

Forced : Нет



Текст #3

Идентификатор : 7

Формат : UTF-8

Идентификатор кодека : S_TEXT/UTF8

Идентификатор кодека/Информация : UTF-8 Plain Text

Заголовок : Focs

Язык : Russian

Default : Нет

Forced : Нет



Текст #4

Идентификатор : 8

Формат : UTF-8

Идентификатор кодека : S_TEXT/UTF8

Идентификатор кодека/Информация : UTF-8 Plain Text

Заголовок : Ruf

Язык : Russian

Default : Нет

Forced : Нет



Текст #5

Идентификатор : 9

Формат : UTF-8

Идентификатор кодека : S_TEXT/UTF8

Идентификатор кодека/Информация : UTF-8 Plain Text

Язык : English

Default : Нет

Forced : Нет



Текст #6

Идентификатор : 10

Формат : UTF-8

Идентификатор кодека : S_TEXT/UTF8

Идентификатор кодека/Информация : UTF-8 Plain Text

Заголовок : SDH

Язык : English

Default : Нет

Forced : Нет



Текст #7

Идентификатор : 11

Формат : UTF-8

Идентификатор кодека : S_TEXT/UTF8

Идентификатор кодека/Информация : UTF-8 Plain Text

Заголовок : SDH-Colored

Язык : English

Default : Нет

Forced : Нет



Меню

00:00:00.000 : en:Chapter 01

00:08:05.901 : en:Chapter 02

00:20:01.700 : en:Chapter 03

00:26:15.280 : en:Chapter 04

00:36:57.172 : en:Chapter 05

00:43:20.597 : en:Chapter 06

00:48:44.170 : en:Chapter 07

00:57:36.744 : en:Chapter 08

01:07:12.610 : en:Chapter 09

01:16:02.515 : en:Chapter 10

01:26:25.430 : en:Chapter 11

01:32:20.117 : en:Chapter 12

01:38:55.804 : en:Chapter 13

01:48:12.359 : en:Chapter 14

01:57:26.912 : en:Chapter 15

02:05:00.242 : en:Chapter 16

02:15:06.430 : en:Chapter 17

02:25:50.450 : en:Chapter 18

02:34:37.933 : en:Chapter 19

02:43:03.897 : en:Chapter 20

02:49:05.343 : en:Chapter 21





Discussion

Comments 0

Post Your Comment

Torrent Files (Unavailable)

Please check back later to get a list of all files included in this torrent.

Alternative Torrents for 'HybridRip'.

TORRENT NAME ADDED SIZE SEEDS PEERS HEALTH
3/7/2019 17.1 GB 0 0
3/11/2019 2.2 GB 0 0
3/23/2019 3.7 GB 0 0
4/24/2019 3.3 GB 0 0
4/25/2019 16 GB 0 0
4/27/2019 17.3 GB 0 0
4/27/2019 26 GB 0 0
5/10/2019 13.2 GB 0 0
5/18/2019 2.1 GB 0 0
5/18/2019 1.5 GB 0 0
6/20/2019 4.1 GB 0 0
10/27/2019 4.4 GB 0 0
11/4/2019 17.3 GB 0 0
11/9/2019 10.2 GB 0 0
11/14/2019 1.5 GB 0 0